  0
SECTION
  2
HEADER
  9
$ACADVER
  1
AC1015
  9
$ACADMAINTVER
 70
     6
  9
$DWGCODEPAGE
  3
ANSI_932
  9
$INSBASE
 10
2246.226033849817
 20
-498.7989361548161
 30
0.0
  9
$EXTMIN
 10
2462.32086929939
 20
-398.6342222555451
 30
-0.0015258207003583
  9
$EXTMAX
 10
2562.412031646139
 20
-298.5952751625163
 30
0.0000000349246037
  9
$LIMMIN
 10
0.0
 20
0.0
  9
$LIMMAX
 10
420.0
 20
297.0
  9
$ORTHOMODE
 70
     1
  9
$REGENMODE
 70
     1
  9
$FILLMODE
 70
     1
  9
$QTEXTMODE
 70
     0
  9
$MIRRTEXT
 70
     1
  9
$LTSCALE
 40
1.0
  9
$ATTMODE
 70
     1
  9
$TEXTSIZE
 40
2.5
  9
$TRACEWID
 40
1.0
  9
$TEXTSTYLE
  7
Standard
  9
$CLAYER
  8
0
  9
$CELTYPE
  6
ByLayer
  9
$CECOLOR
 62
   256
  9
$CELTSCALE
 40
1.0
  9
$DISPSILH
 70
     0
  9
$DIMSCALE
 40
1.0
  9
$DIMASZ
 40
2.5
  9
$DIMEXO
 40
0.625
  9
$DIMDLI
 40
3.75
  9
$DIMRND
 40
0.0
  9
$DIMDLE
 40
0.0
  9
$DIMEXE
 40
1.25
  9
$DIMTP
 40
0.0
  9
$DIMTM
 40
0.0
  9
$DIMTXT
 40
2.5
  9
$DIMCEN
 40
2.5
  9
$DIMTSZ
 40
0.0
  9
$DIMTOL
 70
     0
  9
$DIMLIM
 70
     0
  9
$DIMTIH
 70
     0
  9
$DIMTOH
 70
     0
  9
$DIMSE1
 70
     0
  9
$DIMSE2
 70
     0
  9
$DIMTAD
 70
     1
  9
$DIMZIN
 70
     8
  9
$DIMBLK
  1

  9
$DIMASO
 70
     1
  9
$DIMSHO
 70
     1
  9
$DIMPOST
  1

  9
$DIMAPOST
  1

  9
$DIMALT
 70
     0
  9
$DIMALTD
 70
     3
  9
$DIMALTF
 40
0.03937007874016
  9
$DIMLFAC
 40
1.0
  9
$DIMTOFL
 70
     1
  9
$DIMTVP
 40
0.0
  9
$DIMTIX
 70
     0
  9
$DIMSOXD
 70
     0
  9
$DIMSAH
 70
     0
  9
$DIMBLK1
  1

  9
$DIMBLK2
  1

  9
$DIMSTYLE
  2
ISO-25
  9
$DIMCLRD
 70
     0
  9
$DIMCLRE
 70
     0
  9
$DIMCLRT
 70
     0
  9
$DIMTFAC
 40
1.0
  9
$DIMGAP
 40
0.625
  9
$DIMJUST
 70
     0
  9
$DIMSD1
 70
     0
  9
$DIMSD2
 70
     0
  9
$DIMTOLJ
 70
     0
  9
$DIMTZIN
 70
     8
  9
$DIMALTZ
 70
     0
  9
$DIMALTTZ
 70
     0
  9
$DIMUPT
 70
     0
  9
$DIMDEC
 70
     2
  9
$DIMTDEC
 70
     2
  9
$DIMALTU
 70
     2
  9
$DIMALTTD
 70
     3
  9
$DIMTXSTY
  7
Standard
  9
$DIMAUNIT
 70
     0
  9
$DIMADEC
 70
     0
  9
$DIMALTRND
 40
0.0
  9
$DIMAZIN
 70
     0
  9
$DIMDSEP
 70
    46
  9
$DIMATFIT
 70
     3
  9
$DIMFRAC
 70
     0
  9
$DIMLDRBLK
  1

  9
$DIMLUNIT
 70
     2
  9
$DIMLWD
 70
    -2
  9
$DIMLWE
 70
    -2
  9
$DIMTMOVE
 70
     0
  9
$LUNITS
 70
     2
  9
$LUPREC
 70
     4
  9
$SKETCHINC
 40
1.0
  9
$FILLETRAD
 40
8.0
  9
$AUNITS
 70
     0
  9
$AUPREC
 70
     0
  9
$MENU
  1
.
  9
$ELEVATION
 40
0.0
  9
$PELEVATION
 40
0.0
  9
$THICKNESS
 40
0.0
  9
$LIMCHECK
 70
     0
  9
$CHAMFERA
 40
10.0
  9
$CHAMFERB
 40
10.0
  9
$CHAMFERC
 40
20.0
  9
$CHAMFERD
 40
0.0
  9
$SKPOLY
 70
     0
  9
$TDCREATE
 40
2454450.608673495
  9
$TDUCREATE
 40
2454450.233673495
  9
$TDUPDATE
 40
2455101.706546932
  9
$TDUUPDATE
 40
2455101.331546932
  9
$TDINDWG
 40
0.3524131481
  9
$TDUSRTIMER
 40
0.3524129745
  9
$USRTIMER
 70
     1
  9
$ANGBASE
 50
0.0
  9
$ANGDIR
 70
     0
  9
$PDMODE
 70
     0
  9
$PDSIZE
 40
0.0
  9
$PLINEWID
 40
0.0
  9
$SPLFRAME
 70
     0
  9
$SPLINETYPE
 70
     6
  9
$SPLINESEGS
 70
     8
  9
$HANDSEED
  5
1D0A
  9
$SURFTAB1
 70
     6
  9
$SURFTAB2
 70
     6
  9
$SURFTYPE
 70
     6
  9
$SURFU
 70
     6
  9
$SURFV
 70
     6
  9
$UCSBASE
  2

  9
$UCSNAME
  2

  9
$UCSORG
 10
0.0
 20
0.0
 30
0.0
  9
$UCSXDIR
 10
1.0
 20
0.0
 30
0.0
  9
$UCSYDIR
 10
0.0
 20
1.0
 30
0.0
  9
$UCSORTHOREF
  2

  9
$UCSORTHOVIEW
 70
     0
  9
$UCSORGTOP
 10
0.0
 20
0.0
 30
0.0
  9
$UCSORGBOTTOM
 10
0.0
 20
0.0
 30
0.0
  9
$UCSORGLEFT
 10
0.0
 20
0.0
 30
0.0
  9
$UCSORGRIGHT
 10
0.0
 20
0.0
 30
0.0
  9
$UCSORGFRONT
 10
0.0
 20
0.0
 30
0.0
  9
$UCSORGBACK
 10
0.0
 20
0.0
 30
0.0
  9
$PUCSBASE
  2

  9
$PUCSNAME
  2

  9
$PUCSORG
 10
0.0
 20
0.0
 30
0.0
  9
$PUCSXDIR
 10
1.0
 20
0.0
 30
0.0
  9
$PUCSYDIR
 10
0.0
 20
1.0
 30
0.0
  9
$PUCSORTHOREF
  2

  9
$PUCSORTHOVIEW
 70
     0
  9
$PUCSORGTOP
 10
0.0
 20
0.0
 30
0.0
  9
$PUCSORGBOTTOM
 10
0.0
 20
0.0
 30
0.0
  9
$PUCSORGLEFT
 10
0.0
 20
0.0
 30
0.0
  9
$PUCSORGRIGHT
 10
0.0
 20
0.0
 30
0.0
  9
$PUCSORGFRONT
 10
0.0
 20
0.0
 30
0.0
  9
$PUCSORGBACK
 10
0.0
 20
0.0
 30
0.0
  9
$USERI1
 70
     0
  9
$USERI2
 70
     0
  9
$USERI3
 70
     0
  9
$USERI4
 70
     0
  9
$USERI5
 70
     0
  9
$USERR1
 40
0.0
  9
$USERR2
 40
0.0
  9
$USERR3
 40
0.0
  9
$USERR4
 40
0.0
  9
$USERR5
 40
0.0
  9
$WORLDVIEW
 70
     1
  9
$SHADEDGE
 70
     3
  9
$SHADEDIF
 70
    70
  9
$TILEMODE
 70
     1
  9
$MAXACTVP
 70
    64
  9
$PINSBASE
 10
0.0
 20
0.0
 30
0.0
  9
$PLIMCHECK
 70
     0
  9
$PEXTMIN
 10
1.000000000000000E+20
 20
1.000000000000000E+20
 30
1.000000000000000E+20
  9
$PEXTMAX
 10
-1.000000000000000E+20
 20
-1.000000000000000E+20
 30
-1.000000000000000E+20
  9
$PLIMMIN
 10
0.0
 20
0.0
  9
$PLIMMAX
 10
420.0
 20
297.0
  9
$UNITMODE
 70
     0
  9
$VISRETAIN
 70
     1
  9
$PLINEGEN
 70
     0
  9
$PSLTSCALE
 70
     1
  9
$TREEDEPTH
 70
  3020
  9
$CMLSTYLE
  2
Standard
  9
$CMLJUST
 70
     0
  9
$CMLSCALE
 40
20.0
  9
$PROXYGRAPHICS
 70
     1
  9
$MEASUREMENT
 70
     1
  9
$CELWEIGHT
370
    -1
  9
$ENDCAPS
280
     0
  9
$JOINSTYLE
280
     0
  9
$LWDISPLAY
290
     0
  9
$INSUNITS
 70
     4
  9
$HYPERLINKBASE
  1

  9
$STYLESHEET
  1

  9
$XEDIT
290
     1
  9
$CEPSNTYPE
380
     0
  9
$PSTYLEMODE
290
     1
  9
$FINGERPRINTGUID
  2

  9
$VERSIONGUID
  2
{28F77165-8C60-412A-958B-3067C490E0FE}
  9
$EXTNAMES
290
     1
  9
$PSVPSCALE
 40
0.0
  9
$OLESTARTUP
290
     0
  0
ENDSEC
  0
SECTION
  2
CLASSES
  0
CLASS
  1
ACDBDICTIONARYWDFLT
  2
AcDbDictionaryWithDefault
  3
AutoCAD 2000
 90
        0
280
     0
281
     0
  0
CLASS
  1
ACDBPLACEHOLDER
  2
AcDbPlaceHolder
  3
AutoCAD 2000
 90
        0
280
     0
281
     0
  0
CLASS
  1
LAYOUT
  2
AcDbLayout
  3
AutoCAD 2000
 90
        0
280
     0
281
     0
  0
CLASS
  1
DICTIONARYVAR
  2
AcDbDictionaryVar
  3
AutoCAD 2000
 90
    32768
280
     0
281
     0
  0
ENDSEC
  0
SECTION
  2
TABLES
  0
TABLE
  2
VPORT
  5
C1
330
0
100
AcDbSymbolTable
 70
     2
  0
VPORT
  5
1D09
330
C1
100
AcDbSymbolTableRecord
100
AcDbViewportTableRecord
  2
*Active
 70
     0
 10
0.0
 20
0.0
 11
1.0
 21
1.0
 12
2525.127530176627
 22
-342.4389839062015
 13
0.0
 23
0.0
 14
10.0
 24
10.0
 15
10.0
 25
10.0
 16
0.0
 26
0.0
 36
1.0
 17
0.0
 27
0.0
 37
0.0
 40
118.6037686564076
 41
1.90204081632653
 42
50.0
 43
0.0
 44
0.0
 50
0.0
 51
0.0
 71
     0
 72
   100
 73
     1
 74
     3
 75
     0
 76
     0
 77
     0
 78
     0
281
     0
 65
     1
110
0.0
120
0.0
130
0.0
111
1.0
121
0.0
131
0.0
112
0.0
122
1.0
132
0.0
 79
     0
146
0.0
  0
ENDTAB
  0
TABLE
  2
LTYPE
  5
BC
330
0
100
AcDbSymbolTable
 70
     1
  0
LTYPE
  5
BD
330
BC
100
AcDbSymbolTableRecord
100
AcDbLinetypeTableRecord
  2
ByBlock
 70
     0
  3

 72
    65
 73
     0
 40
0.0
  0
LTYPE
  5
BE
330
BC
100
AcDbSymbolTableRecord
100
AcDbLinetypeTableRecord
  2
ByLayer
 70
     0
  3

 72
    65
 73
     0
 40
0.0
  0
LTYPE
  5
8
330
BC
100
AcDbSymbolTableRecord
100
AcDbLinetypeTableRecord
  2
Continuous
 70
     0
  3
Solid line
 72
    65
 73
     0
 40
0.0
  0
ENDTAB
  0
TABLE
  2
LAYER
  5
B9
330
0
100
AcDbSymbolTable
 70
     2
  0
LAYER
  5
4
330
B9
100
AcDbSymbolTableRecord
100
AcDbLayerTableRecord
  2
0
 70
     0
 62
     7
  6
Continuous
370
    -3
390
5
  0
LAYER
  5
14
330
B9
100
AcDbSymbolTableRecord
100
AcDbLayerTableRecord
  2
Defpoints
 70
     0
 62
     7
  6
Continuous
290
     0
370
    -3
390
5
  0
ENDTAB
  0
TABLE
  2
STYLE
  5
BA
330
0
100
AcDbSymbolTable
 70
     3
  0
STYLE
  5
9
330
BA
100
AcDbSymbolTableRecord
100
AcDbTextStyleTableRecord
  2
Standard
 70
     0
 40
0.0
 41
1.0
 50
0.0
 71
     0
 42
2.5
  3
txt
  4

  0
STYLE
  5
CD
330
BA
100
AcDbSymbolTableRecord
100
AcDbTextStyleTableRecord
  2
KANJI
 70
     0
 40
2.5
 41
1.0
 50
0.0
 71
     0
 42
2.5
  3
txt.shx
  4
BIGFONT
  0
STYLE
  5
CE
330
BA
100
AcDbSymbolTableRecord
100
AcDbTextStyleTableRecord
  2
STD
 70
     0
 40
2.5
 41
1.0
 50
0.0
 71
     0
 42
2.5
  3
txt
  4
bigfont
  0
ENDTAB
  0
TABLE
  2
VIEW
  5
BF
330
0
100
AcDbSymbolTable
 70
     0
  0
ENDTAB
  0
TABLE
  2
UCS
  5
C0
330
0
100
AcDbSymbolTable
 70
     0
  0
ENDTAB
  0
TABLE
  2
APPID
  5
C3
330
0
100
AcDbSymbolTable
 70
     1
  0
APPID
  5
19
330
C3
100
AcDbSymbolTableRecord
100
AcDbRegAppTableRecord
  2
ACAD
 70
     0
  0
ENDTAB
  0
TABLE
  2
DIMSTYLE
  5
C4
330
0
100
AcDbSymbolTable
 70
     2
100
AcDbDimStyleTable
 71
     1
340
4A
  0
DIMSTYLE
105
4A
102
{ACAD_REACTORS
330
1378
330
1379
330
137A
330
137B
330
137C
330
137D
330
137E
330
13B6
330
13CE
330
13CF
330
136B
102
}
330
C4
100
AcDbSymbolTableRecord
100
AcDbDimStyleTableRecord
  2
ISO-25
 70
     0
 41
2.5
 42
0.625
 43
3.75
 44
1.25
 73
     0
 74
     0
 77
     1
 78
     8
140
2.5
141
2.5
143
0.03937007874016
147
0.625
171
     3
172
     1
271
     2
272
     2
274
     3
283
     0
284
     8
340
9
  0
DIMSTYLE
105
A
330
C4
100
AcDbSymbolTableRecord
100
AcDbDimStyleTableRecord
  2
Standard
 70
     0
340
9
  0
ENDTAB
  0
TABLE
  2
BLOCK_RECORD
  5
1
330
0
100
AcDbSymbolTable
 70
    11
  0
BLOCK_RECORD
  5
2
330
1
100
AcDbSymbolTableRecord
100
AcDbBlockTableRecord
  2
*Model_Space
340
B3
  0
BLOCK_RECORD
  5
B5
330
1
100
AcDbSymbolTableRecord
100
AcDbBlockTableRecord
  2
*Paper_Space
340
B8
  0
BLOCK_RECORD
  5
1405
330
1
100
AcDbSymbolTableRecord
100
AcDbBlockTableRecord
  2
*D0
340
0
  0
BLOCK_RECORD
  5
1410
330
1
100
AcDbSymbolTableRecord
100
AcDbBlockTableRecord
  2
*D1
340
0
  0
BLOCK_RECORD
  5
141E
330
1
100
AcDbSymbolTableRecord
100
AcDbBlockTableRecord
  2
*D2
340
0
  0
BLOCK_RECORD
  5
142C
330
1
100
AcDbSymbolTableRecord
100
AcDbBlockTableRecord
  2
*D3
340
0
  0
BLOCK_RECORD
  5
143A
330
1
100
AcDbSymbolTableRecord
100
AcDbBlockTableRecord
  2
*D4
340
0
  0
BLOCK_RECORD
  5
1448
330
1
100
AcDbSymbolTableRecord
100
AcDbBlockTableRecord
  2
*D5
340
0
  0
BLOCK_RECORD
  5
1454
330
1
100
AcDbSymbolTableRecord
100
AcDbBlockTableRecord
  2
*D6
340
0
  0
BLOCK_RECORD
  5
1462
330
1
100
AcDbSymbolTableRecord
100
AcDbBlockTableRecord
  2
*D7
340
0
  0
BLOCK_RECORD
  5
1470
330
1
100
AcDbSymbolTableRecord
100
AcDbBlockTableRecord
  2
*D8
340
0
  0
BLOCK_RECORD
  5
147C
330
1
100
AcDbSymbolTableRecord
100
AcDbBlockTableRecord
  2
*D9
340
0
  0
BLOCK_RECORD
  5
148A
330
1
100
AcDbSymbolTableRecord
100
AcDbBlockTableRecord
  2
*D10
340
0
  0
ENDTAB
  0
ENDSEC
  0
SECTION
  2
BLOCKS
  0
BLOCK
  5
B1
330
2
100
AcDbEntity
  8
0
100
AcDbBlockBegin
  2
*Model_Space
 70
     0
 10
0.0
 20
0.0
 30
0.0
  3
*Model_Space
  1

  0
ENDBLK
  5
B2
330
2
100
AcDbEntity
  8
0
100
AcDbBlockEnd
  0
BLOCK
  5
B6
330
B5
100
AcDbEntity
 67
     1
  8
0
100
AcDbBlockBegin
  2
*Paper_Space
 70
     0
 10
0.0
 20
0.0
 30
0.0
  3
*Paper_Space
  1

  0
ENDBLK
  5
B7
330
B5
100
AcDbEntity
 67
     1
  8
0
100
AcDbBlockEnd
  0
BLOCK
  5
140E
330
1405
100
AcDbEntity
  8
0
100
AcDbBlockBegin
  2
*D0
 70
     1
 10
0.0
 20
0.0
 30
0.0
  3
*D0
  1

  0
LINE
  5
1C90
330
1405
100
AcDbEntity
  8
0
 62
     0
370
    -2
100
AcDbLine
 10
2537.08488674608
 20
-334.38339855051
 30
0.0
 11
2530.687445116024
 21
-329.2272030828101
 31
0.0
  0
LINE
  5
1C91
330
1405
100
AcDbEntity
  8
0
 62
     0
370
    -2
100
AcDbLine
 10
2527.137059659668
 20
-326.3656714804519
 30
0.0
 11
2525.579873056003
 21
-325.1106137601191
 31
0.0
  0
MTEXT
  5
1C92
330
1405
100
AcDbEntity
  8
0
 62
     0
100
AcDbMText
 10
2535.700181852159
 20
-331.1481507288024
 30
0.0
 40
2.5
 41
0.0
 71
     5
 72
     1
  1
φ10
  7
STD
 11
0.7785933018324388
 21
-0.6275288601663361
 31
0.0
 73
     1
 44
1.0
  0
LINE
  5
1C93
330
1405
100
AcDbEntity
  8
0
 62
     0
370
    -2
100
AcDbLine
 10
2528.694246263333
 20
-327.6207292007845
 30
0.0
 11
2529.130258512359
 21
-327.9721453624774
 31
0.0
  0
SOLID
  5
1C94
330
1405
100
AcDbEntity
  8
0
 62
     0
100
AcDbTrace
 10
2527.34623594639
 20
-326.1061403798412
 30
0.0
 11
2526.927883372946
 21
-326.6252025810627
 31
0.0
 12
2528.694246263333
 22
-327.6207292007845
 32
0.0
 13
2528.694246263333
 23
-327.6207292007845
 33
0.0
  0
SOLID
  5
1C95
330
1405
100
AcDbEntity
  8
0
 62
     0
100
AcDbTrace
 10
2530.896621402746
 20
-328.9676719821993
 30
0.0
 11
2530.478268829302
 21
-329.4867341834208
 31
0.0
 12
2529.130258512359
 22
-327.9721453624774
 32
0.0
 13
2529.130258512359
 23
-327.9721453624774
 33
0.0
  0
POINT
  5
1C96
330
1405
100
AcDbEntity
  8
Defpoints
 62
     0
100
AcDbPoint
 10
2529.130258512359
 20
-327.9721453624774
 30
0.0
  0
POINT
  5
1C97
330
1405
100
AcDbEntity
  8
Defpoints
 62
     0
100
AcDbPoint
 10
2528.694246263333
 20
-327.6207292007845
 30
0.0
  0
ENDBLK
  5
140F
330
1405
100
AcDbEntity
  8
0
100
AcDbBlockEnd
  0
BLOCK
  5
141C
330
1410
100
AcDbEntity
  8
0
100
AcDbBlockBegin
  2
*D1
 70
     1
 10
0.0
 20
0.0
 30
0.0
  3
*D1
  1

  0
LINE
  5
1CAC
330
1410
100
AcDbEntity
  8
0
 62
     0
370
    -2
100
AcDbLine
 10
2515.125861821486
 20
-317.2124372816309
 30
0.0
 11
2490.115175218881
 21
-317.2124372816309
 31
0.0
  0
LINE
  5
1CAD
330
1410
100
AcDbEntity
  8
0
 62
     0
370
    -2
100
AcDbLine
 10
2498.9734100531
 20
-322.4364186276685
 30
0.0
 11
2490.115175218881
 21
-322.4364186276685
 31
0.0
  0
LINE
  5
1CAE
330
1410
100
AcDbEntity
  8
0
 62
     0
370
    -2
100
AcDbLine
 10
2491.365175218881
 20
-319.2124372816309
 30
0.0
 11
2491.365175218881
 21
-320.4364186276685
 31
0.0
  0
SOLID
  5
1CAF
330
1410
100
AcDbEntity
  8
0
 62
     0
100
AcDbTrace
 10
2491.031841885547
 20
-319.2124372816309
 30
0.0
 11
2491.698508552214
 21
-319.2124372816309
 31
0.0
 12
2491.365175218881
 22
-317.2124372816309
 32
0.0
 13
2491.365175218881
 23
-317.2124372816309
 33
0.0
  0
SOLID
  5
1CB0
330
1410
100
AcDbEntity
  8
0
 62
     0
100
AcDbTrace
 10
2491.031841885547
 20
-320.4364186276685
 30
0.0
 11
2491.698508552214
 21
-320.4364186276685
 31
0.0
 12
2491.365175218881
 22
-322.4364186276685
 32
0.0
 13
2491.365175218881
 23
-322.4364186276685
 33
0.0
  0
MTEXT
  5
1CB1
330
1410
100
AcDbEntity
  8
0
 62
     0
100
AcDbMText
 10
2490.465175218881
 20
-319.8244279546493
 30
0.0
 40
1.0
 41
0.0
 71
     5
 72
     1
  1
94
 11
0.0000000000000001
 21
1.0
 31
0.0
 73
     1
 44
1.0
  0
POINT
  5
1CB2
330
1410
100
AcDbEntity
  8
Defpoints
 62
     0
100
AcDbPoint
 10
2515.750861821486
 20
-317.2124372816309
 30
0.0
  0
POINT
  5
1CB3
330
1410
100
AcDbEntity
  8
Defpoints
 62
     0
100
AcDbPoint
 10
2499.5984100531
 20
-322.4364186276685
 30
0.0
  0
POINT
  5
1CB4
330
1410
100
AcDbEntity
  8
Defpoints
 62
     0
100
AcDbPoint
 10
2491.365175218881
 20
-322.4364186276685
 30
0.0
  0
ENDBLK
  5
141D
330
1410
100
AcDbEntity
  8
0
100
AcDbBlockEnd
  0
BLOCK
  5
142A
330
141E
100
AcDbEntity
  8
0
100
AcDbBlockBegin
  2
*D2
 70
     1
 10
0.0
 20
0.0
 30
0.0
  3
*D2
  1

  0
LINE
  5
1CF1
330
141E
100
AcDbEntity
  8
0
 62
     0
370
    -2
100
AcDbLine
 10
2521.063252387846
 20
-317.2124372816309
 30
0.0
 11
2516.105438465999
 21
-317.2124372816309
 31
0.0
  0
LINE
  5
1CF2
330
141E
100
AcDbEntity
  8
0
 62
     0
370
    -2
100
AcDbLine
 10
2521.063252387846
 20
-328.5244372816309
 30
0.0
 11
2516.105438465999
 21
-328.5244372816309
 31
0.0
  0
LINE
  5
1CF3
330
141E
100
AcDbEntity
  8
0
 62
     0
370
    -2
100
AcDbLine
 10
2517.355438465999
 20
-319.2124372816309
 30
0.0
 11
2517.355438465999
 21
-326.5244372816309
 31
0.0
  0
SOLID
  5
1CF4
330
141E
100
AcDbEntity
  8
0
 62
     0
100
AcDbTrace
 10
2517.022105132665
 20
-319.2124372816309
 30
0.0
 11
2517.688771799333
 21
-319.2124372816309
 31
0.0
 12
2517.355438465999
 22
-317.2124372816309
 32
0.0
 13
2517.355438465999
 23
-317.2124372816309
 33
0.0
  0
SOLID
  5
1CF5
330
141E
100
AcDbEntity
  8
0
 62
     0
100
AcDbTrace
 10
2517.022105132665
 20
-326.5244372816309
 30
0.0
 11
2517.688771799333
 21
-326.5244372816309
 31
0.0
 12
2517.355438465999
 22
-328.5244372816309
 32
0.0
 13
2517.355438465999
 23
-328.5244372816309
 33
0.0
  0
MTEXT
  5
1CF6
330
141E
100
AcDbEntity
  8
0
 62
     0
100
AcDbMText
 10
2516.455438465999
 20
-322.8684372816309
 30
0.0
 40
1.0
 41
0.0
 71
     5
 72
     1
  1
202
 11
0.0000000000000001
 21
1.0
 31
0.0
 73
     1
 44
1.0
  0
POINT
  5
1CF7
330
141E
100
AcDbEntity
  8
Defpoints
 62
     0
100
AcDbPoint
 10
2521.688252387846
 20
-317.2124372816309
 30
0.0
  0
POINT
  5
1CF8
330
141E
100
AcDbEntity
  8
Defpoints
 62
     0
100
AcDbPoint
 10
2521.688252387846
 20
-328.5244372816309
 30
0.0
  0
POINT
  5
1CF9
330
141E
100
AcDbEntity
  8
Defpoints
 62
     0
100
AcDbPoint
 10
2517.355438465999
 20
-328.5244372816309
 30
0.0
  0
ENDBLK
  5
142B
330
141E
100
AcDbEntity
  8
0
100
AcDbBlockEnd
  0
BLOCK
  5
1438
330
142C
100
AcDbEntity
  8
0
100
AcDbBlockBegin
  2
*D3
 70
     1
 10
0.0
 20
0.0
 30
0.0
  3
*D3
  1

  0
LINE
  5
1CE8
330
142C
100
AcDbEntity
  8
0
 62
     0
370
    -2
100
AcDbLine
 10
2521.231252387846
 20
-317.9404372816309
 30
0.0
 11
2518.355438465999
 21
-317.9404372816309
 31
0.0
  0
LINE
  5
1CE9
330
142C
100
AcDbEntity
  8
0
 62
     0
370
    -2
100
AcDbLine
 10
2521.231252387846
 20
-327.7964372816309
 30
0.0
 11
2518.355438465999
 21
-327.7964372816309
 31
0.0
  0
LINE
  5
1CEA
330
142C
100
AcDbEntity
  8
0
 62
     0
370
    -2
100
AcDbLine
 10
2519.605438465999
 20
-319.9404372816309
 30
0.0
 11
2519.605438465999
 21
-325.7964372816309
 31
0.0
  0
SOLID
  5
1CEB
330
142C
100
AcDbEntity
  8
0
 62
     0
100
AcDbTrace
 10
2519.272105132666
 20
-319.9404372816309
 30
0.0
 11
2519.938771799333
 21
-319.9404372816309
 31
0.0
 12
2519.605438465999
 22
-317.9404372816309
 32
0.0
 13
2519.605438465999
 23
-317.9404372816309
 33
0.0
  0
SOLID
  5
1CEC
330
142C
100
AcDbEntity
  8
0
 62
     0
100
AcDbTrace
 10
2519.272105132666
 20
-325.7964372816309
 30
0.0
 11
2519.938771799333
 21
-325.7964372816309
 31
0.0
 12
2519.605438465999
 22
-327.7964372816309
 32
0.0
 13
2519.605438465999
 23
-327.7964372816309
 33
0.0
  0
MTEXT
  5
1CED
330
142C
100
AcDbEntity
  8
0
 62
     0
100
AcDbMText
 10
2518.705438465999
 20
-322.8684372816309
 30
0.0
 40
1.0
 41
0.0
 71
     5
 72
     1
  1
176
 11
0.0000000000000001
 21
1.0
 31
0.0
 73
     1
 44
1.0
  0
POINT
  5
1CEE
330
142C
100
AcDbEntity
  8
Defpoints
 62
     0
100
AcDbPoint
 10
2521.856252387846
 20
-317.9404372816309
 30
0.0
  0
POINT
  5
1CEF
330
142C
100
AcDbEntity
  8
Defpoints
 62
     0
100
AcDbPoint
 10
2521.856252387846
 20
-327.7964372816309
 30
0.0
  0
POINT
  5
1CF0
330
142C
100
AcDbEntity
  8
Defpoints
 62
     0
100
AcDbPoint
 10
2519.605438465999
 20
-327.7964372816309
 30
0.0
  0
ENDBLK
  5
1439
330
142C
100
AcDbEntity
  8
0
100
AcDbBlockEnd
  0
BLOCK
  5
1446
330
143A
100
AcDbEntity
  8
0
100
AcDbBlockBegin
  2
*D4
 70
     1
 10
0.0
 20
0.0
 30
0.0
  3
*D4
  1

  0
LINE
  5
1C98
330
143A
100
AcDbEntity
  8
0
 62
     0
370
    -2
100
AcDbLine
 10
2521.231252387846
 20
-317.9404372816309
 30
0.0
 11
2519.283252387847
 21
-317.9404372816309
 31
0.0
  0
LINE
  5
1C99
330
143A
100
AcDbEntity
  8
0
 62
     0
370
    -2
100
AcDbLine
 10
2521.231252387846
 20
-318.6124372816308
 30
0.0
 11
2519.283252387847
 21
-318.6124372816308
 31
0.0
  0
LINE
  5
1C9A
330
143A
100
AcDbEntity
  8
0
 62
     0
370
    -2
100
AcDbLine
 10
2520.533252387846
 20
-320.6124372816308
 30
0.0
 11
2520.533252387846
 21
-322.6124372816308
 31
0.0
  0
LINE
  5
1C9B
330
143A
100
AcDbEntity
  8
0
 62
     0
370
    -2
100
AcDbLine
 10
2520.533252387846
 20
-315.9404372816309
 30
0.0
 11
2520.533252387846
 21
-311.2071039482975
 31
0.0
  0
LINE
  5
1C9C
330
143A
100
AcDbEntity
  8
0
 62
     0
370
    -2
100
AcDbLine
 10
2520.533252387846
 20
-318.6124372816308
 30
0.0
 11
2520.533252387846
 21
-317.9404372816309
 31
0.0
  0
SOLID
  5
1C9D
330
143A
100
AcDbEntity
  8
0
 62
     0
100
AcDbTrace
 10
2520.199919054513
 20
-320.6124372816308
 30
0.0
 11
2520.86658572118
 21
-320.6124372816308
 31
0.0
 12
2520.533252387846
 22
-318.6124372816308
 32
0.0
 13
2520.533252387846
 23
-318.6124372816308
 33
0.0
  0
SOLID
  5
1C9E
330
143A
100
AcDbEntity
  8
0
 62
     0
100
AcDbTrace
 10
2520.199919054513
 20
-315.9404372816309
 30
0.0
 11
2520.86658572118
 21
-315.9404372816309
 31
0.0
 12
2520.533252387846
 22
-317.9404372816309
 32
0.0
 13
2520.533252387846
 23
-317.9404372816309
 33
0.0
  0
MTEXT
  5
1C9F
330
143A
100
AcDbEntity
  8
0
 62
     0
100
AcDbMText
 10
2519.633252387846
 20
-312.2737706149638
 30
0.0
 40
1.0
 41
0.0
 71
     5
 72
     1
  1
12
 11
0.0000000000000001
 21
1.0
 31
0.0
 73
     1
 44
1.0
  0
POINT
  5
1CA0
330
143A
100
AcDbEntity
  8
Defpoints
 62
     0
100
AcDbPoint
 10
2521.856252387846
 20
-317.9404372816309
 30
0.0
  0
POINT
  5
1CA1
330
143A
100
AcDbEntity
  8
Defpoints
 62
     0
100
AcDbPoint
 10
2521.856252387846
 20
-318.6124372816308
 30
0.0
  0
POINT
  5
1CA2
330
143A
100
AcDbEntity
  8
Defpoints
 62
     0
100
AcDbPoint
 10
2520.533252387846
 20
-318.6124372816308
 30
0.0
  0
ENDBLK
  5
1447
330
143A
100
AcDbEntity
  8
0
100
AcDbBlockEnd
  0
BLOCK
  5
1452
330
1448
100
AcDbEntity
  8
0
100
AcDbBlockBegin
  2
*D5
 70
     1
 10
0.0
 20
0.0
 30
0.0
  3
*D5
  1

  0
LINE
  5
1CB5
330
1448
100
AcDbEntity
  8
0
 62
     0
370
    -2
100
AcDbLine
 10
2498.9734100531
 20
-322.4364186276685
 30
0.0
 11
2490.105396904501
 21
-322.4364186276685
 31
0.0
  0
LINE
  5
1CB6
330
1448
100
AcDbEntity
  8
0
 62
     0
370
    -2
100
AcDbLine
 10
2500.542767062978
 20
-338.8484036860901
 30
0.0
 11
2490.105396904501
 21
-338.8484036860901
 31
0.0
  0
LINE
  5
1CB7
330
1448
100
AcDbEntity
  8
0
 62
     0
370
    -2
100
AcDbLine
 10
2491.355396904501
 20
-324.4364186276685
 30
0.0
 11
2491.355396904501
 21
-336.8484036860901
 31
0.0
  0
SOLID
  5
1CB8
330
1448
100
AcDbEntity
  8
0
 62
     0
100
AcDbTrace
 10
2491.022063571167
 20
-324.4364186276685
 30
0.0
 11
2491.688730237834
 21
-324.4364186276685
 31
0.0
 12
2491.355396904501
 22
-322.4364186276685
 32
0.0
 13
2491.355396904501
 23
-322.4364186276685
 33
0.0
  0
SOLID
  5
1CB9
330
1448
100
AcDbEntity
  8
0
 62
     0
100
AcDbTrace
 10
2491.022063571167
 20
-336.8484036860901
 30
0.0
 11
2491.688730237834
 21
-336.8484036860901
 31
0.0
 12
2491.355396904501
 22
-338.8484036860901
 32
0.0
 13
2491.355396904501
 23
-338.8484036860901
 33
0.0
  0
MTEXT
  5
1CBA
330
1448
100
AcDbEntity
  8
0
 62
     0
100
AcDbMText
 10
2490.455396904501
 20
-330.6424111568789
 30
0.0
 40
1.0
 41
0.0
 71
     5
 72
     1
  1
293.5
 11
0.0000000000000001
 21
1.0
 31
0.0
 73
     1
 44
1.0
  0
POINT
  5
1CBB
330
1448
100
AcDbEntity
  8
Defpoints
 62
     0
100
AcDbPoint
 10
2499.5984100531
 20
-322.4364186276685
 30
0.0
  0
POINT
  5
1CBC
330
1448
100
AcDbEntity
  8
Defpoints
 62
     0
100
AcDbPoint
 10
2501.167767062978
 20
-338.8484036860901
 30
0.0
  0
POINT
  5
1CBD
330
1448
100
AcDbEntity
  8
Defpoints
 62
     0
100
AcDbPoint
 10
2491.355396904501
 20
-338.8484036860901
 30
0.0
  0
ENDBLK
  5
1453
330
1448
100
AcDbEntity
  8
0
100
AcDbBlockEnd
  0
BLOCK
  5
1460
330
1454
100
AcDbEntity
  8
0
100
AcDbBlockBegin
  2
*D6
 70
     1
 10
0.0
 20
0.0
 30
0.0
  3
*D6
  1

  0
LINE
  5
1CDD
330
1454
100
AcDbEntity
  8
0
 62
     0
370
    -2
100
AcDbLine
 10
2521.856252387846
 20
-328.4214372816309
 30
0.0
 11
2521.856252387846
 21
-332.8699498626751
 31
0.0
  0
LINE
  5
1CDE
330
1454
100
AcDbEntity
  8
0
 62
     0
370
    -2
100
AcDbLine
 10
2528.912252387846
 20
-328.4214372816309
 30
0.0
 11
2528.912252387846
 21
-332.8699498626751
 31
0.0
  0
LINE
  5
1CDF
330
1454
100
AcDbEntity
  8
0
 62
     0
370
    -2
100
AcDbLine
 10
2519.856252387846
 20
-331.6199498626752
 30
0.0
 11
2517.856252387846
 21
-331.6199498626752
 31
0.0
  0
LINE
  5
1CE0
330
1454
100
AcDbEntity
  8
0
 62
     0
370
    -2
100
AcDbLine
 10
2530.912252387846
 20
-331.6199498626752
 30
0.0
 11
2532.912252387846
 21
-331.6199498626752
 31
0.0
  0
LINE
  5
1CE1
330
1454
100
AcDbEntity
  8
0
 62
     0
370
    -2
100
AcDbLine
 10
2521.856252387846
 20
-331.6199498626752
 30
0.0
 11
2528.912252387846
 21
-331.6199498626752
 31
0.0
  0
SOLID
  5
1CE2
330
1454
100
AcDbEntity
  8
0
 62
     0
100
AcDbTrace
 10
2519.856252387846
 20
-331.2866165293418
 30
0.0
 11
2519.856252387846
 21
-331.9532831960084
 31
0.0
 12
2521.856252387846
 22
-331.6199498626752
 32
0.0
 13
2521.856252387846
 23
-331.6199498626752
 33
0.0
  0
SOLID
  5
1CE3
330
1454
100
AcDbEntity
  8
0
 62
     0
100
AcDbTrace
 10
2530.912252387846
 20
-331.2866165293418
 30
0.0
 11
2530.912252387846
 21
-331.9532831960084
 31
0.0
 12
2528.912252387846
 22
-331.6199498626752
 32
0.0
 13
2528.912252387846
 23
-331.6199498626752
 33
0.0
  0
MTEXT
  5
1CE4
330
1454
100
AcDbEntity
  8
0
 62
     0
100
AcDbMText
 10
2525.384252387846
 20
-330.7199498626752
 30
0.0
 40
1.0
 41
0.0
 71
     5
 72
     1
  1
126
 73
     1
 44
1.0
  0
POINT
  5
1CE5
330
1454
100
AcDbEntity
  8
Defpoints
 62
     0
100
AcDbPoint
 10
2521.856252387846
 20
-327.7964372816309
 30
0.0
  0
POINT
  5
1CE6
330
1454
100
AcDbEntity
  8
Defpoints
 62
     0
100
AcDbPoint
 10
2528.912252387846
 20
-327.7964372816309
 30
0.0
  0
POINT
  5
1CE7
330
1454
100
AcDbEntity
  8
Defpoints
 62
     0
100
AcDbPoint
 10
2528.912252387846
 20
-331.6199498626752
 30
0.0
  0
ENDBLK
  5
1461
330
1454
100
AcDbEntity
  8
0
100
AcDbBlockEnd
  0
BLOCK
  5
146E
330
1462
100
AcDbEntity
  8
0
100
AcDbBlockBegin
  2
*D7
 70
     1
 10
0.0
 20
0.0
 30
0.0
  3
*D7
  1

  0
LINE
  5
1CD4
330
1462
100
AcDbEntity
  8
0
 62
     0
370
    -2
100
AcDbLine
 10
2521.128252387846
 20
-328.5894372816309
 30
0.0
 11
2521.128252387846
 21
-335.5399732821376
 31
0.0
  0
LINE
  5
1CD5
330
1462
100
AcDbEntity
  8
0
 62
     0
370
    -2
100
AcDbLine
 10
2529.640252387846
 20
-328.5894372816309
 30
0.0
 11
2529.640252387846
 21
-335.5399732821376
 31
0.0
  0
LINE
  5
1CD6
330
1462
100
AcDbEntity
  8
0
 62
     0
370
    -2
100
AcDbLine
 10
2523.128252387846
 20
-334.2899732821376
 30
0.0
 11
2527.640252387846
 21
-334.2899732821376
 31
0.0
  0
SOLID
  5
1CD7
330
1462
100
AcDbEntity
  8
0
 62
     0
100
AcDbTrace
 10
2523.128252387846
 20
-333.9566399488043
 30
0.0
 11
2523.128252387846
 21
-334.6233066154709
 31
0.0
 12
2521.128252387846
 22
-334.2899732821376
 32
0.0
 13
2521.128252387846
 23
-334.2899732821376
 33
0.0
  0
SOLID
  5
1CD8
330
1462
100
AcDbEntity
  8
0
 62
     0
100
AcDbTrace
 10
2527.640252387846
 20
-333.9566399488043
 30
0.0
 11
2527.640252387846
 21
-334.6233066154709
 31
0.0
 12
2529.640252387846
 22
-334.2899732821376
 32
0.0
 13
2529.640252387846
 23
-334.2899732821376
 33
0.0
  0
MTEXT
  5
1CD9
330
1462
100
AcDbEntity
  8
0
 62
     0
100
AcDbMText
 10
2525.384252387846
 20
-333.3899732821377
 30
0.0
 40
1.0
 41
0.0
 71
     5
 72
     1
  1
152
 73
     1
 44
1.0
  0
POINT
  5
1CDA
330
1462
100
AcDbEntity
  8
Defpoints
 62
     0
100
AcDbPoint
 10
2521.128252387846
 20
-327.9644372816309
 30
0.0
  0
POINT
  5
1CDB
330
1462
100
AcDbEntity
  8
Defpoints
 62
     0
100
AcDbPoint
 10
2529.640252387846
 20
-327.9644372816309
 30
0.0
  0
POINT
  5
1CDC
330
1462
100
AcDbEntity
  8
Defpoints
 62
     0
100
AcDbPoint
 10
2529.640252387846
 20
-334.2899732821376
 30
0.0
  0
ENDBLK
  5
146F
330
1462
100
AcDbEntity
  8
0
100
AcDbBlockEnd
  0
BLOCK
  5
147A
330
1470
100
AcDbEntity
  8
0
100
AcDbBlockBegin
  2
*D8
 70
     1
 10
0.0
 20
0.0
 30
0.0
  3
*D8
  1

  0
LINE
  5
1CA3
330
1470
100
AcDbEntity
  8
0
 62
     0
370
    -2
100
AcDbLine
 10
2499.26176934446
 20
-319.3639571942217
 30
0.0
 11
2499.26176934446
 21
-313.5304196166317
 31
0.0
  0
LINE
  5
1CA4
330
1470
100
AcDbEntity
  8
0
 62
     0
370
    -2
100
AcDbLine
 10
2515.750861821486
 20
-316.5874372816309
 30
0.0
 11
2515.750861821486
 21
-313.5304196166317
 31
0.0
  0
LINE
  5
1CA5
330
1470
100
AcDbEntity
  8
0
 62
     0
370
    -2
100
AcDbLine
 10
2501.26176934446
 20
-314.7804196166317
 30
0.0
 11
2513.750861821486
 21
-314.7804196166317
 31
0.0
  0
SOLID
  5
1CA6
330
1470
100
AcDbEntity
  8
0
 62
     0
100
AcDbTrace
 10
2501.26176934446
 20
-314.4470862832984
 30
0.0
 11
2501.26176934446
 21
-315.1137529499651
 31
0.0
 12
2499.26176934446
 22
-314.7804196166317
 32
0.0
 13
2499.26176934446
 23
-314.7804196166317
 33
0.0
  0
SOLID
  5
1CA7
330
1470
100
AcDbEntity
  8
0
 62
     0
100
AcDbTrace
 10
2513.750861821486
 20
-314.4470862832984
 30
0.0
 11
2513.750861821486
 21
-315.1137529499651
 31
0.0
 12
2515.750861821486
 22
-314.7804196166317
 32
0.0
 13
2515.750861821486
 23
-314.7804196166317
 33
0.0
  0
MTEXT
  5
1CA8
330
1470
100
AcDbEntity
  8
0
 62
     0
100
AcDbMText
 10
2507.506315582973
 20
-313.8804196166318
 30
0.0
 40
1.0
 41
0.0
 71
     5
 72
     1
  1
294
 73
     1
 44
1.0
  0
POINT
  5
1CA9
330
1470
100
AcDbEntity
  8
Defpoints
 62
     0
100
AcDbPoint
 10
2499.26176934446
 20
-319.9889571942217
 30
0.0
  0
POINT
  5
1CAA
330
1470
100
AcDbEntity
  8
Defpoints
 62
     0
100
AcDbPoint
 10
2515.750861821486
 20
-317.2124372816309
 30
0.0
  0
POINT
  5
1CAB
330
1470
100
AcDbEntity
  8
Defpoints
 62
     0
100
AcDbPoint
 10
2515.750861821486
 20
-314.7804196166317
 30
0.0
  0
ENDBLK
  5
147B
330
1470
100
AcDbEntity
  8
0
100
AcDbBlockEnd
  0
BLOCK
  5
1488
330
147C
100
AcDbEntity
  8
0
100
AcDbBlockBegin
  2
*D9
 70
     1
 10
0.0
 20
0.0
 30
0.0
  3
*D9
  1

  0
LINE
  5
1CC9
330
147C
100
AcDbEntity
  8
0
 62
     0
370
    -2
100
AcDbLine
 10
2529.164252387846
 20
-317.3154372816309
 30
0.0
 11
2529.164252387846
 21
-313.6113484710329
 31
0.0
  0
LINE
  5
1CCA
330
147C
100
AcDbEntity
  8
0
 62
     0
370
    -2
100
AcDbLine
 10
2528.660252387846
 20
-317.3154372816309
 30
0.0
 11
2528.660252387846
 21
-313.6113484710329
 31
0.0
  0
LINE
  5
1CCB
330
147C
100
AcDbEntity
  8
0
 62
     0
370
    -2
100
AcDbLine
 10
2531.164252387846
 20
-314.8613484710328
 30
0.0
 11
2533.164252387846
 21
-314.8613484710328
 31
0.0
  0
LINE
  5
1CCC
330
147C
100
AcDbEntity
  8
0
 62
     0
370
    -2
100
AcDbLine
 10
2526.660252387846
 20
-314.8613484710328
 30
0.0
 11
2522.593585721179
 21
-314.8613484710328
 31
0.0
  0
LINE
  5
1CCD
330
147C
100
AcDbEntity
  8
0
 62
     0
370
    -2
100
AcDbLine
 10
2529.164252387846
 20
-314.8613484710328
 30
0.0
 11
2528.660252387846
 21
-314.8613484710328
 31
0.0
  0
SOLID
  5
1CCE
330
147C
100
AcDbEntity
  8
0
 62
     0
100
AcDbTrace
 10
2531.164252387846
 20
-314.5280151376995
 30
0.0
 11
2531.164252387846
 21
-315.1946818043662
 31
0.0
 12
2529.164252387846
 22
-314.8613484710328
 32
0.0
 13
2529.164252387846
 23
-314.8613484710328
 33
0.0
  0
SOLID
  5
1CCF
330
147C
100
AcDbEntity
  8
0
 62
     0
100
AcDbTrace
 10
2526.660252387846
 20
-314.5280151376995
 30
0.0
 11
2526.660252387846
 21
-315.1946818043662
 31
0.0
 12
2528.660252387846
 22
-314.8613484710328
 32
0.0
 13
2528.660252387846
 23
-314.8613484710328
 33
0.0
  0
MTEXT
  5
1CD0
330
147C
100
AcDbEntity
  8
0
 62
     0
100
AcDbMText
 10
2523.326919054513
 20
-313.9613484710329
 30
0.0
 40
1.0
 41
0.0
 71
     5
 72
     1
  1
9
 73
     1
 44
1.0
  0
POINT
  5
1CD1
330
147C
100
AcDbEntity
  8
Defpoints
 62
     0
100
AcDbPoint
 10
2529.164252387846
 20
-317.9404372816309
 30
0.0
  0
POINT
  5
1CD2
330
147C
100
AcDbEntity
  8
Defpoints
 62
     0
100
AcDbPoint
 10
2528.660252387846
 20
-317.9404372816309
 30
0.0
  0
POINT
  5
1CD3
330
147C
100
AcDbEntity
  8
Defpoints
 62
     0
100
AcDbPoint
 10
2528.660252387846
 20
-314.8613484710328
 30
0.0
  0
ENDBLK
  5
1489
330
147C
100
AcDbEntity
  8
0
100
AcDbBlockEnd
  0
BLOCK
  5
1496
330
148A
100
AcDbEntity
  8
0
100
AcDbBlockBegin
  2
*D10
 70
     1
 10
0.0
 20
0.0
 30
0.0
  3
*D10
  1

  0
LINE
  5
1CBE
330
148A
100
AcDbEntity
  8
0
 62
     0
370
    -2
100
AcDbLine
 10
2528.464252387846
 20
-319.2374372816308
 30
0.0
 11
2528.464252387846
 21
-321.2983096351623
 31
0.0
  0
LINE
  5
1CBF
330
148A
100
AcDbEntity
  8
0
 62
     0
370
    -2
100
AcDbLine
 10
2529.360252387846
 20
-319.2374372816308
 30
0.0
 11
2529.360252387846
 21
-321.2983096351623
 31
0.0
  0
LINE
  5
1CC0
330
148A
100
AcDbEntity
  8
0
 62
     0
370
    -2
100
AcDbLine
 10
2526.464252387846
 20
-320.0483096351623
 30
0.0
 11
2524.464252387846
 21
-320.0483096351623
 31
0.0
  0
LINE
  5
1CC1
330
148A
100
AcDbEntity
  8
0
 62
     0
370
    -2
100
AcDbLine
 10
2531.360252387846
 20
-320.0483096351623
 30
0.0
 11
2535.493585721179
 21
-320.0483096351623
 31
0.0
  0
LINE
  5
1CC2
330
148A
100
AcDbEntity
  8
0
 62
     0
370
    -2
100
AcDbLine
 10
2528.464252387846
 20
-320.0483096351623
 30
0.0
 11
2529.360252387846
 21
-320.0483096351623
 31
0.0
  0
SOLID
  5
1CC3
330
148A
100
AcDbEntity
  8
0
 62
     0
100
AcDbTrace
 10
2526.464252387846
 20
-319.714976301829
 30
0.0
 11
2526.464252387846
 21
-320.3816429684956
 31
0.0
 12
2528.464252387846
 22
-320.0483096351623
 32
0.0
 13
2528.464252387846
 23
-320.0483096351623
 33
0.0
  0
SOLID
  5
1CC4
330
148A
100
AcDbEntity
  8
0
 62
     0
100
AcDbTrace
 10
2531.360252387846
 20
-319.714976301829
 30
0.0
 11
2531.360252387846
 21
-320.3816429684956
 31
0.0
 12
2529.360252387846
 22
-320.0483096351623
 32
0.0
 13
2529.360252387846
 23
-320.0483096351623
 33
0.0
  0
MTEXT
  5
1CC5
330
148A
100
AcDbEntity
  8
0
 62
     0
100
AcDbMText
 10
2534.426919054513
 20
-319.1483096351623
 30
0.0
 40
1.0
 41
0.0
 71
     5
 72
     1
  1
16
 73
     1
 44
1.0
  0
POINT
  5
1CC6
330
148A
100
AcDbEntity
  8
Defpoints
 62
     0
100
AcDbPoint
 10
2528.464252387846
 20
-318.6124372816308
 30
0.0
  0
POINT
  5
1CC7
330
148A
100
AcDbEntity
  8
Defpoints
 62
     0
100
AcDbPoint
 10
2529.360252387846
 20
-318.6124372816308
 30
0.0
  0
POINT
  5
1CC8
330
148A
100
AcDbEntity
  8
Defpoints
 62
     0
100
AcDbPoint
 10
2529.360252387846
 20
-320.0483096351623
 30
0.0
  0
ENDBLK
  5
1497
330
148A
100
AcDbEntity
  8
0
100
AcDbBlockEnd
  0
ENDSEC
  0
SECTION
  2
ENTITIES
  0
TEXT
  5
F8
330
2
100
AcDbEntity
  8
0
100
AcDbText
 10
2536.354222506532
 20
-304.6495265160369
 30
0.0
 40
4.0
  1
RHW-12
 41
0.8
  7
STD
100
AcDbText
  0
TEXT
  5
F9
330
2
100
AcDbEntity
  8
0
100
AcDbText
 10
2476.784633831185
 20
-302.4142281059104
 30
0.0
 40
3.0
  1
壁付け型ドームハウジング
  7
STD
100
AcDbText
  0
LINE
  5
FA
330
2
100
AcDbEntity
  8
0
100
AcDbLine
 10
2562.333829457327
 20
-298.6129954511873
 30
0.0
 11
2562.333829457327
 21
-306.6129954511873
 31
0.0
  0
LINE
  5
FB
330
2
100
AcDbEntity
  8
0
100
AcDbLine
 10
2462.333829457327
 20
-306.6129954511873
 30
0.0
 11
2462.333829457327
 21
-298.6129954511873
 31
0.0
  0
LINE
  5
FC
330
2
100
AcDbEntity
  8
0
100
AcDbLine
 10
2559.333829457328
 20
-394.495426085864
 30
0.0
 11
2559.333829457328
 21
-362.4954260858639
 31
0.0
  0
LINE
  5
FD
330
2
100
AcDbEntity
  8
0
100
AcDbLine
 10
2465.333829457327
 20
-362.4954260858639
 30
0.0
 11
2465.333829457327
 21
-394.495426085864
 31
0.0
  0
LINE
  5
FE
330
2
100
AcDbEntity
  8
0
100
AcDbLine
 10
2465.333829457327
 20
-390.4954260858639
 30
0.0
 11
2559.333829457328
 21
-390.4954260858639
 31
0.0
  0
LINE
  5
FF
330
2
100
AcDbEntity
  8
0
100
AcDbLine
 10
2465.333829457327
 20
-386.495426085864
 30
0.0
 11
2559.333829457328
 21
-386.495426085864
 31
0.0
  0
LINE
  5
100
330
2
100
AcDbEntity
  8
0
100
AcDbLine
 10
2465.333829457327
 20
-382.4954260858639
 30
0.0
 11
2559.333829457328
 21
-382.4954260858639
 31
0.0
  0
LINE
  5
101
330
2
100
AcDbEntity
  8
0
100
AcDbLine
 10
2465.333829457327
 20
-378.4954260858639
 30
0.0
 11
2559.333829457328
 21
-378.4954260858639
 31
0.0
  0
LINE
  5
102
330
2
100
AcDbEntity
  8
0
100
AcDbLine
 10
2465.333829457327
 20
-374.4954260858639
 30
0.0
 11
2559.333829457328
 21
-374.4954260858639
 31
0.0
  0
LINE
  5
103
330
2
100
AcDbEntity
  8
0
100
AcDbLine
 10
2465.333829457327
 20
-370.4954260858639
 30
0.0
 11
2559.333829457328
 21
-370.4954260858639
 31
0.0
  0
LINE
  5
104
330
2
100
AcDbEntity
  8
0
100
AcDbLine
 10
2559.333829457328
 20
-362.4954260858639
 30
0.0
 11
2465.333829457327
 21
-362.4954260858639
 31
0.0
  0
LINE
  5
105
330
2
100
AcDbEntity
  8
0
100
AcDbLine
 10
2465.333829457327
 20
-366.4954260858639
 30
0.0
 11
2559.333829457328
 21
-366.4954260858639
 31
0.0
  0
LINE
  5
106
330
2
100
AcDbEntity
  8
0
100
AcDbLine
 10
2496.333829457327
 20
-362.4954260858639
 30
0.0
 11
2496.333829457327
 21
-394.495426085864
 31
0.0
  0
TEXT
  5
107
330
2
100
AcDbEntity
  8
0
100
AcDbText
 10
2467.680303457328
 20
-365.8065119095829
 30
0.0
 40
2.5
  1
材質
  7
STD
100
AcDbText
  0
TEXT
  5
109
330
2
100
AcDbEntity
  8
0
100
AcDbText
 10
2467.680303457328
 20
-373.9194334515027
 30
0.0
 40
2.5
  1
防滴構造
  7
STD
100
AcDbText
  0
TEXT
  5
10A
330
2
100
AcDbEntity
  8
0
100
AcDbText
 10
2467.680303457328
 20
-369.8454460001208
 30
0.0
 40
2.5
  1
使用温度
  7
STD
100
AcDbText
  0
TEXT
  5
10C
330
2
100
AcDbEntity
  8
0
100
AcDbText
 10
2467.515522583781
 20
-393.5704415233486
 30
0.0
 40
2.5
  1
対応カメラ
  7
STD
100
AcDbText
  0
TEXT
  5
10D
330
2
100
AcDbEntity
  8
0
100
AcDbText
 10
2498.712779553773
 20
-393.1977291522936
 30
0.0
 40
1.7
  1
BB-HCM511、BB-HCM580、581、DG-NS202A 
  7
STD
100
AcDbText
  0
TEXT
  5
10E
330
2
100
AcDbEntity
  8
0
100
AcDbText
 10
2498.701477962326
 20
-381.8494724350438
 30
0.0
 40
2.5
  1

  7
STD
100
AcDbText
  0
TEXT
  5
10F
330
2
100
AcDbEntity
  8
0
100
AcDbText
 10
2498.454063888392
 20
-369.8454460001208
 30
0.0
 40
2.5
  1
-10℃～45℃
  7
STD
100
AcDbText
  0
TEXT
  5
110
330
2
100
AcDbEntity
  8
0
100
AcDbText
 10
2498.56836373577
 20
-373.7205684515028
 30
0.0
 40
2.5
  1
IP66相当
  7
STD
100
AcDbText
  0
TEXT
  5
112
330
2
100
AcDbEntity
  8
0
100
AcDbText
 10
2498.721882457328
 20
-365.694718909583
 30
0.0
 40
2.5
  1
アルミニウム、AES樹脂
 41
0.9
  7
STD
100
AcDbText
  0
LINE
  5
115
330
2
100
AcDbEntity
  8
0
100
AcDbLine
 10
2562.333829457327
 20
-398.6129954511873
 30
0.0
 11
2462.333829457327
 21
-398.6129954511873
 31
0.0
  0
LINE
  5
116
330
2
100
AcDbEntity
  8
0
100
AcDbLine
 10
2462.333829457327
 20
-398.6129954511873
 30
0.0
 11
2462.333829457327
 21
-306.6129954511873
 31
0.0
  0
LINE
  5
117
330
2
100
AcDbEntity
  8
0
100
AcDbLine
 10
2474.333829457327
 20
-298.6129954511873
 30
0.0
 11
2474.333829457327
 21
-306.6129954511873
 31
0.0
  0
LINE
  5
118
330
2
100
AcDbEntity
  8
0
100
AcDbLine
 10
2462.333829457327
 20
-298.6129954511873
 30
0.0
 11
2562.333829457327
 21
-298.6129954511873
 31
0.0
  0
LINE
  5
119
330
2
100
AcDbEntity
  8
0
100
AcDbLine
 10
2525.842457387693
 20
-298.6129954511873
 30
0.0
 11
2525.842457387693
 21
-306.6129954511873
 31
0.0
  0
LINE
  5
11A
330
2
100
AcDbEntity
  8
0
100
AcDbLine
 10
2462.333829457327
 20
-306.6129954511873
 30
0.0
 11
2562.333829457327
 21
-306.6129954511873
 31
0.0
  0
LINE
  5
11B
330
2
100
AcDbEntity
  8
0
100
AcDbLine
 10
2562.333829457327
 20
-306.6129954511873
 30
0.0
 11
2562.333829457327
 21
-398.6129954511873
 31
0.0
  0
TEXT
  5
681
330
2
100
AcDbEntity
  8
0
100
AcDbText
 10
2467.526723596325
 20
-378.0529957228941
 30
0.0
 40
2.5
  1
ファンヒーター
  7
STD
100
AcDbText
  0
TEXT
  5
68C
330
2
100
AcDbEntity
  8
0
100
AcDbText
 10
2498.573751485357
 20
-377.8418656580338
 30
0.0
 40
2.5
  1
あり
  7
STD
100
AcDbText
  0
TEXT
  5
699
330
2
100
AcDbEntity
  8
0
100
AcDbText
 10
2467.674977712974
 20
-385.7207711676606
 30
0.0
 40
2.5
  1
質量
  7
STD
100
AcDbText
  0
TEXT
  5
6A0
330
2
100
AcDbEntity
  8
0
100
AcDbText
 10
2498.507038308449
 20
-385.6854998584811
 30
0.0
 40
2.5
  1
本体3.2kg＋ブラケット1.3kg 
  7
STD
100
AcDbText
  0
LINE
  5
6DC
330
2
100
AcDbEntity
  8
0
100
AcDbLine
 10
2465.333829457327
 20
-394.495426085864
 30
0.0
 11
2559.333829457328
 21
-394.495426085864
 31
0.0
  0
TEXT
  5
6E9
330
2
100
AcDbEntity
  8
0
100
AcDbText
 10
2482.520765167934
 20
-305.8146918615745
 30
0.0
 40
3.0
  1
(ファンヒーター付)
  7
STD
100
AcDbText
  0
TEXT
  5
6F3
330
2
100
AcDbEntity
  8
0
100
AcDbText
 10
2467.689346539634
 20
-389.7292419994338
 30
0.0
 40
2.5
  1
塗装色
  7
STD
100
AcDbText
  0
TEXT
  5
6FB
330
2
100
AcDbEntity
  8
0
100
AcDbText
 10
2498.655630321211
 20
-389.8060195145562
 30
0.0
 40
2.5
  1
アイボリー
  7
STD
100
AcDbText
  0
ARC
  5
1369
330
2
100
AcDbEntity
  8
0
100
AcDbCircle
 10
2527.373877779661
 20
-326.9082044840794
 30
0.0
 40
0.168
100
AcDbArc
 50
270.0
 51
0.0
  0
LINE
  5
136A
330
2
100
AcDbEntity
  8
0
100
AcDbLine
 10
2528.912252387846
 20
-327.0358184426104
 30
0.0
 11
2528.912252387846
 21
-328.5570561206514
 31
0.0
  0
DIMENSION
  5
136B
330
2
100
AcDbEntity
  8
0
100
AcDbDimension
  2
*D0
 10
2528.694246263333
 20
-327.6207292007845
 30
0.0
 11
2535.700181852159
 21
-331.1481507288024
 31
0.0
 70
    35
  1
φ10
 71
     5
 42
0.5599999999999455
  3
ISO-25
100
AcDbDiametricDimension
 15
2529.130258512359
 25
-327.9721453624774
 35
0.0
 40
0.0
1001
ACAD
1000
DSTYLE
1002
{
1070
   147
1040
0.4
1070
   340
1005
CE
1070
   140
1040
1.0
1070
    41
1040
2.0
1070
   288
1070
     1
1002
}
  0
ARC
  5
136C
330
2
100
AcDbEntity
  8
0
100
AcDbCircle
 10
2523.515915669833
 20
-326.9082044840794
 30
0.0
 40
0.168
100
AcDbArc
 50
180.0
 51
270.0
  0
LINE
  5
136D
330
2
100
AcDbEntity
  8
0
100
AcDbLine
 10
2521.856252387847
 20
-327.0358184426104
 30
0.0
 11
2521.856252387847
 21
-328.5570561206514
 31
0.0
  0
LINE
  5
136E
330
2
100
AcDbEntity
  8
0
100
AcDbLine
 10
2522.864252387846
 20
-327.0684372816309
 30
0.0
 11
2522.864252387846
 21
-318.6684372816309
 31
0.0
  0
LINE
  5
136F
330
2
100
AcDbEntity
  8
0
100
AcDbLine
 10
2527.904252387846
 20
-318.6684372816309
 30
0.0
 11
2527.904252387846
 21
-327.0684372816309
 31
0.0
  0
LINE
  5
1370
330
2
100
AcDbEntity
  8
0
100
AcDbLine
 10
2529.640252387846
 20
-327.9644372816309
 30
0.0
 11
2529.640252387846
 21
-317.7724372816309
 31
0.0
  0
LINE
  5
1371
330
2
100
AcDbEntity
  8
0
100
AcDbLine
 10
2523.114117193955
 20
-321.9655020370954
 30
0.0
 11
2522.864252387846
 21
-327.0684372816309
 31
0.0
  0
LWPOLYLINE
  5
1372
330
2
100
AcDbEntity
  8
0
100
AcDbPolyline
 90
        2
 70
     0
 43
0.0
 10
2514.854837633833
 20
-327.8812253396016
 10
2511.92997846933
 20
-322.7339041891412
  0
LWPOLYLINE
  5
1373
330
2
100
AcDbEntity
  8
0
100
AcDbPolyline
 90
       20
 70
     0
 43
0.0
 10
2508.4510562377
 20
-332.80370125741
 10
2507.592434288565
 20
-325.4858782401428
 10
2507.592434288565
 20
-325.4858782401428
 10
2507.562814758832
 20
-325.323027372049
 10
2507.562814758832
 20
-325.323027372049
 10
2507.518436869178
 20
-325.165147362208
 10
2507.518436869178
 20
-325.165147362208
 10
2507.454283496898
 20
-325.012186805674
 10
2507.454283496898
 20
-325.012186805674
 10
2507.375315219257
 20
-324.8690702962485
 10
2507.375315219257
 20
-324.8690702962485
 10
2507.276674268883
 20
-324.7358852223393
 10
2507.276674268883
 20
-324.7358852223393
 10
2507.168040197058
 20
-324.6124927905931
 10
2507.168040197058
 20
-324.6124927905931
 10
2507.044750575203
 20
-324.5039615286592
 10
2507.044750575203
 20
-324.5039615286592
 10
2506.90654837859
 20
-324.4101886266464
 10
2506.90654837859
 20
-324.4101886266464
 10
2506.76342672867
 20
-324.3361912072584
  0
LWPOLYLINE
  5
1374
330
2
100
AcDbEntity
  8
0
100
AcDbPolyline
 90
       24
 70
     0
 43
0.0
 10
2495.57205599234
 20
-324.3361912072584
 10
2495.428985747366
 20
-324.4101886266464
 10
2495.428985747366
 20
-324.4101886266464
 10
2495.290834955699
 20
-324.5039615286592
 10
2495.290834955699
 20
-324.5039615286592
 10
2495.167447664447
 20
-324.6124927905931
 10
2495.167447664447
 20
-324.6124927905931
 10
2495.058911262019
 20
-324.7358852223393
 10
2495.058911262019
 20
-324.7358852223393
 10
2494.960218906699
 20
-324.8690702962485
 10
2494.960218906699
 20
-324.8690702962485
 10
2494.881255769552
 20
-325.012186805674
 10
2494.881255769552
 20
-325.012186805674
 10
2494.817097256779
 20
-325.165147362208
 10
2494.817097256779
 20
-325.165147362208
 10
2494.767753649366
 20
-325.323027372049
 10
2494.767753649366
 20
-325.323027372049
 10
2494.743104977885
 20
-325.4858782401428
 10
2494.743104977885
 20
-325.4858782401428
 10
2493.884477888256
 20
-332.80370125741
 10
2493.884477888256
 20
-332.80370125741
 10
2507.784899545898
 20
-332.80370125741
 10
2507.784899545898
 20
-332.80370125741
 10
2508.4510562377
 20
-332.80370125741
  0
LINE
  5
1375
330
2
100
AcDbEntity
  8
0
100
AcDbLine
 10
2515.750861821486
 20
-317.2124372816309
 30
0.0
 11
2515.750861821486
 21
-328.5244372816308
 31
0.0
  0
LINE
  5
1376
330
2
100
AcDbEntity
  8
0
100
AcDbLine
 10
2514.854837633833
 20
-317.5008395891919
 30
0.0
 11
2514.854837633833
 21
-327.9644372816309
 31
0.0
  0
LINE
  5
1377
330
2
100
AcDbEntity
  8
0
100
AcDbLine
 10
2521.128252387846
 20
-317.7724372816309
 30
0.0
 11
2521.128252387846
 21
-327.9644372816309
 31
0.0
  0
DIMENSION
  5
1378
330
2
100
AcDbEntity
  8
0
100
AcDbDimension
  2
*D1
 10
2491.365175218881
 20
-322.4364186276685
 30
0.0
 11
2490.465175218881
 21
-319.8244279546493
 31
0.0
 70
    32
  1
94
 71
     5
 42
5.223981346037589
  3
ISO-25
100
AcDbAlignedDimension
 13
2515.750861821486
 23
-317.2124372816309
 33
0.0
 14
2499.5984100531
 24
-322.4364186276685
 34
0.0
 50
90.0
100
AcDbRotatedDimension
1001
ACAD
1000
DSTYLE
1002
{
1070
   147
1040
0.4
1070
   140
1040
1.0
1070
    41
1040
2.0
1002
}
  0
DIMENSION
  5
1379
330
2
100
AcDbEntity
  8
0
100
AcDbDimension
  2
*D2
 10
2517.355438465999
 20
-328.5244372816309
 30
0.0
 11
2517.355438465999
 21
-322.8684372816309
 31
0.0
 70
   160
  1
202
 71
     5
 42
11.31200000000001
  3
ISO-25
100
AcDbAlignedDimension
 13
2521.688252387846
 23
-317.2124372816309
 33
0.0
 14
2521.688252387846
 24
-328.5244372816309
 34
0.0
 50
90.0
100
AcDbRotatedDimension
1001
ACAD
1000
DSTYLE
1002
{
1070
   147
1040
0.4
1070
   140
1040
1.0
1070
    41
1040
2.0
1002
}
  0
DIMENSION
  5
137A
330
2
100
AcDbEntity
  8
0
100
AcDbDimension
  2
*D3
 10
2519.605438465999
 20
-327.7964372816309
 30
0.0
 11
2519.605438465999
 21
-322.8684372816309
 31
0.0
 70
   160
  1
176
 71
     5
 42
9.855999999999994
  3
ISO-25
100
AcDbAlignedDimension
 13
2521.856252387846
 23
-317.9404372816309
 33
0.0
 14
2521.856252387846
 24
-327.7964372816309
 34
0.0
 50
90.0
100
AcDbRotatedDimension
1001
ACAD
1000
DSTYLE
1002
{
1070
   147
1040
0.4
1070
   140
1040
1.0
1070
    41
1040
2.0
1002
}
  0
DIMENSION
  5
137B
330
2
100
AcDbEntity
  8
0
100
AcDbDimension
  2
*D4
 10
2520.533252387846
 20
-318.6124372816308
 30
0.0
 11
2520.533252387846
 21
-312.2737706149638
 31
0.0
 70
   160
  1
12
 71
     5
 42
0.6719999999999687
  3
ISO-25
100
AcDbAlignedDimension
 13
2521.856252387846
 23
-317.9404372816309
 33
0.0
 14
2521.856252387846
 24
-318.6124372816308
 34
0.0
 50
90.0
100
AcDbRotatedDimension
1001
ACAD
1000
DSTYLE
1002
{
1070
   147
1040
0.4
1070
   140
1040
1.0
1070
    41
1040
2.0
1002
}
  0
DIMENSION
  5
137C
330
2
100
AcDbEntity
  8
0
100
AcDbDimension
  2
*D5
 10
2491.355396904501
 20
-338.8484036860901
 30
0.0
 11
2490.455396904501
 21
-330.6424111568789
 31
0.0
 70
    32
  1
293.5
 71
     5
 42
16.41198505842157
  3
ISO-25
100
AcDbAlignedDimension
 13
2499.5984100531
 23
-322.4364186276685
 33
0.0
 14
2501.167767062978
 24
-338.8484036860901
 34
0.0
 50
90.0
100
AcDbRotatedDimension
1001
ACAD
1000
DSTYLE
1002
{
1070
   147
1040
0.4
1070
    41
1040
2.0
1070
   140
1040
1.0
1002
}
  0
DIMENSION
  5
137D
330
2
100
AcDbEntity
  8
0
100
AcDbDimension
  2
*D6
 10
2528.912252387846
 20
-331.6199498626752
 30
0.0
 11
2525.384252387846
 21
-331.6199498626752
 31
0.0
 70
   160
  1
126
 71
     5
 42
7.05600000000004
  3
ISO-25
100
AcDbAlignedDimension
 13
2521.856252387846
 23
-327.7964372816309
 33
0.0
 14
2528.912252387846
 24
-327.7964372816309
 34
0.0
100
AcDbRotatedDimension
1001
ACAD
1000
DSTYLE
1002
{
1070
   147
1040
0.4
1070
   140
1040
1.0
1070
    41
1040
2.0
1002
}
  0
DIMENSION
  5
137E
330
2
100
AcDbEntity
  8
0
100
AcDbDimension
  2
*D7
 10
2529.640252387846
 20
-334.2899732821376
 30
0.0
 11
2525.384252387846
 21
-334.2899732821376
 31
0.0
 70
   160
  1
152
 71
     5
 42
8.51200000000017
  3
ISO-25
100
AcDbAlignedDimension
 13
2521.128252387846
 23
-327.9644372816309
 33
0.0
 14
2529.640252387846
 24
-327.9644372816309
 34
0.0
100
AcDbRotatedDimension
1001
ACAD
1000
DSTYLE
1002
{
1070
   147
1040
0.4
1070
   140
1040
1.0
1070
    41
1040
2.0
1002
}
  0
LWPOLYLINE
  5
137F
330
2
100
AcDbEntity
  8
0
100
AcDbPolyline
 90
        8
 70
     0
 43
0.0
 10
2507.999435031572
 20
-353.2935438294589
 10
2508.721325906931
 20
-353.3386796035185
 10
2508.721325906931
 20
-353.3386796035185
 10
2510.667054986339
 20
-353.4485094733414
 10
2510.667054986339
 20
-353.4485094733414
 10
2512.612789543819
 20
-353.5385963709043
 10
2512.612789543819
 20
-353.5385963709043
 10
2514.565097787957
 20
-353.6024159122001
  0
LWPOLYLINE
  5
1380
330
2
100
AcDbEntity
  8
0
100
AcDbPolyline
 90
        8
 70
     0
 43
0.0
 10
2514.828907729427
 20
-347.9098221693055
 10
2512.60722382245
 20
-347.9777121390197
 10
2512.60722382245
 20
-347.9777121390197
 10
2510.661702909786
 20
-348.0716501213492
 10
2510.661702909786
 20
-348.0716501213492
 10
2508.716187475194
 20
-348.19196502139
 10
2508.716187475194
 20
-348.19196502139
 10
2507.996209742608
 20
-348.235234267718
  0
CIRCLE
  5
1381
330
2
100
AcDbEntity
  8
0
100
AcDbCircle
 10
2501.167767062978
 20
-350.7687440414562
 30
0.0
 40
5.09741682373415
  0
CIRCLE
  5
1382
330
2
100
AcDbEntity
  8
0
100
AcDbCircle
 10
2501.167767062978
 20
-350.7687440414562
 30
0.0
 40
5.881902965532038
  0
CIRCLE
  5
1383
330
2
100
AcDbEntity
  8
0
100
AcDbCircle
 10
2501.167767062978
 20
-350.7687440414562
 30
0.0
 40
7.283289174721355
  0
CIRCLE
  5
1384
330
2
100
AcDbEntity
  8
0
100
AcDbCircle
 10
2501.167767062978
 20
-350.7687440414562
 30
0.0
 40
6.641781154400572
  0
LWPOLYLINE
  5
1385
330
2
100
AcDbEntity
  8
0
100
AcDbPolyline
 90
       94
 70
     0
 43
0.0
 10
2496.144491187075
 20
-334.2297875430257
 10
2496.179030170115
 20
-334.5505184209605
 10
2496.179030170115
 20
-334.5505184209605
 10
2496.238212684142
 20
-334.8613538468409
 10
2496.238212684142
 20
-334.8613538468409
 10
2496.312261508475
 20
-335.1722458181618
 10
2496.312261508475
 20
-335.1722458181618
 10
2496.410953863795
 20
-335.4781669312298
 10
2496.410953863795
 20
-335.4781669312298
 10
2496.524455983982
 20
-335.7742439971893
 10
2496.524455983982
 20
-335.7742439971893
 10
2496.657687322342
 20
-336.0654067503364
 10
2496.657687322342
 20
-336.0654067503364
 10
2496.810647878877
 20
-336.3417083336709
 10
2496.810647878877
 20
-336.3417083336709
 10
2496.978413059782
 20
-336.6130904636985
 10
2496.978413059782
 20
-336.6130904636985
 10
2497.165912599356
 20
-336.8746336871121
 10
2497.165912599356
 20
-336.8746336871121
 10
2497.368221903798
 20
-337.121367145659
 10
2497.368221903798
 20
-337.121367145659
 10
2497.585387237557
 20
-337.3532908393391
 10
2497.585387237557
 20
-337.3532908393391
 10
2497.812340072984
 20
-337.5753242214595
 10
2497.812340072984
 20
-337.5753242214595
 10
2498.059073531532
 20
-337.7776335259007
 10
2498.059073531532
 20
-337.7776335259007
 10
2498.315645896692
 20
-337.9651793299264
 10
2498.315645896692
 20
-337.9651793299264
 10
2498.58702802672
 20
-338.1378691046341
 10
2498.58702802672
 20
-338.1378691046341
 10
2498.863329610054
 20
-338.2908296611681
 10
2498.863329610054
 20
-338.2908296611681
 10
2499.154492363202
 20
-338.4289804528354
 10
2499.154492363202
 20
-338.4289804528354
 10
2499.450569429161
 20
-338.547402026329
 10
2499.450569429161
 20
-338.547402026329
 10
2499.751571088922
 20
-338.6461457865946
 10
2499.751571088922
 20
-338.6461457865946
 10
2500.062463060243
 20
-338.7250626592895
 10
2500.062463060243
 20
-338.7250626592895
 10
2500.37334989107
 20
-338.7842965782618
 10
2500.37334989107
 20
-338.7842965782618
 10
2500.689109910751
 20
-338.828725872862
 10
2500.689109910751
 20
-338.828725872862
 10
2501.009887053137
 20
-338.8484036860901
 10
2501.009887053137
 20
-338.8484036860901
 10
2501.325698477765
 20
-338.8484036860901
 10
2501.325698477765
 20
-338.8484036860901
 10
2501.646424215206
 20
-338.828725872862
 10
2501.646424215206
 20
-338.828725872862
 10
2501.962235639833
 20
-338.7842965782618
 10
2501.962235639833
 20
-338.7842965782618
 10
2502.27312247066
 20
-338.7250626592895
 10
2502.27312247066
 20
-338.7250626592895
 10
2502.583963037034
 20
-338.6461457865946
 10
2502.583963037034
 20
-338.6461457865946
 10
2502.884964696795
 20
-338.547402026329
 10
2502.884964696795
 20
-338.547402026329
 10
2503.181046903249
 20
-338.4289804528354
 10
2503.181046903249
 20
-338.4289804528354
 10
2503.472153110956
 20
-338.2908296611681
 10
2503.472153110956
 20
-338.2908296611681
 10
2503.748506099237
 20
-338.1378691046341
 10
2503.748506099237
 20
-338.1378691046341
 10
2504.019888229263
 20
-337.9651793299264
 10
2504.019888229263
 20
-337.9651793299264
 10
2504.27651199937
 20
-337.7776335259007
 10
2504.27651199937
 20
-337.7776335259007
 10
2504.518274599664
 20
-337.5753242214595
 10
2504.518274599664
 20
-337.5753242214595
 10
2504.750198293345
 20
-337.3532908393391
 10
2504.750198293345
 20
-337.3532908393391
 10
2504.967317362653
 20
-337.121367145659
 10
2504.967317362653
 20
-337.121367145659
 10
2505.169621526599
 20
-336.8746336871121
 10
2505.169621526599
 20
-336.8746336871121
 10
2505.357121066174
 20
-336.6130904636985
 10
2505.357121066174
 20
-336.6130904636985
 10
2505.524891387574
 20
-336.3417083336709
 10
2505.524891387574
 20
-336.3417083336709
 10
2505.67789820856
 20
-336.0654067503364
 10
2505.67789820856
 20
-336.0654067503364
 10
2505.811078141974
 20
-335.7742439971893
 10
2505.811078141974
 20
-335.7742439971893
 10
2505.924580262161
 20
-335.4781669312298
 10
2505.924580262161
 20
-335.4781669312298
 10
2506.023277757975
 20
-335.1722458181618
 10
2506.023277757975
 20
-335.1722458181618
 10
2506.097321441814
 20
-334.8613538468409
 10
2506.097321441814
 20
-334.8613538468409
 10
2506.156509096336
 20
-334.5505184209605
 10
2506.156509096336
 20
-334.5505184209605
 10
2506.191042938882
 20
-334.2297875430257
  0
LWPOLYLINE
  5
1386
330
2
100
AcDbEntity
  8
0
100
AcDbPolyline
 90
        4
 70
     0
 43
0.0
 10
2494.738134119633
 20
-333.8695519642923
 10
2495.323266335964
 20
-334.2297875430257
 10
2495.323266335964
 20
-334.2297875430257
 10
2506.972408395068
 20
-334.2297875430257
  0
LWPOLYLINE
  5
1387
330
2
100
AcDbEntity
  8
0
100
AcDbPolyline
 90
        4
 70
     0
 43
0.0
 10
2507.809548217379
 20
-333.726481719318
 10
2507.809548217379
 20
-333.5290970086784
 10
2507.809548217379
 20
-333.5290970086784
 10
2494.525985908577
 20
-333.5290970086784
  0
LWPOLYLINE
  5
1388
330
2
100
AcDbEntity
  8
0
100
AcDbPolyline
 90
        8
 70
     0
 43
0.0
 10
2494.738134119633
 20
-333.8695519642923
 10
2494.708565994845
 20
-333.8152837630781
 10
2494.708565994845
 20
-333.8152837630781
 10
2494.664136700245
 20
-333.7757790622794
 10
2494.664136700245
 20
-333.7757790622794
 10
2494.609873639525
 20
-333.7511303907988
 10
2494.609873639525
 20
-333.7511303907988
 10
2494.550634580058
 20
-333.741240079239
  0
LWPOLYLINE
  5
1389
330
2
100
AcDbEntity
  8
0
100
AcDbPolyline
 90
        4
 70
     0
 43
0.0
 10
2494.525985908577
 20
-333.726481719318
 10
2494.525985908577
 20
-333.5290970086784
 10
2494.525985908577
 20
-333.5290970086784
 10
2494.639441764313
 20
-333.5290970086784
  0
LWPOLYLINE
  5
138A
330
2
100
AcDbEntity
  8
0
100
AcDbPolyline
 90
        2
 70
     0
 43
0.0
 10
2494.525985908577
 20
-333.726481719318
 10
2494.550634580058
 20
-333.741240079239
  0
LWPOLYLINE
  5
138B
330
2
100
AcDbEntity
  8
0
100
AcDbPolyline
 90
        2
 70
     0
 43
0.0
 10
2494.525985908577
 20
-333.5290970086784
 10
2494.609873639525
 20
-333.5290970086784
  0
LWPOLYLINE
  5
138C
330
2
100
AcDbEntity
  8
0
100
AcDbPolyline
 90
        6
 70
     0
 43
0.0
 10
2494.550634580058
 20
-332.80370125741
 10
2494.525985908577
 20
-333.5290970086784
 10
2494.525985908577
 20
-333.5290970086784
 10
2494.609873639525
 20
-333.5290970086784
 10
2494.609873639525
 20
-333.5290970086784
 10
2494.525985908577
 20
-333.5290970086784
  0
LWPOLYLINE
  5
138D
330
2
100
AcDbEntity
  8
0
100
AcDbPolyline
 90
        8
 70
     0
 43
0.0
 10
2507.784899545898
 20
-333.741240079239
 10
2507.725665626926
 20
-333.7511303907988
 10
2507.725665626926
 20
-333.7511303907988
 10
2507.671397425712
 20
-333.7757790622794
 10
2507.671397425712
 20
-333.7757790622794
 10
2507.626968131111
 20
-333.8152837630781
 10
2507.626968131111
 20
-333.8152837630781
 10
2507.597353741872
 20
-333.8695519642923
  0
LWPOLYLINE
  5
138E
330
2
100
AcDbEntity
  8
0
100
AcDbPolyline
 90
        2
 70
     0
 43
0.0
 10
2507.809548217379
 20
-333.726481719318
 10
2507.784899545898
 20
-333.741240079239
  0
LWPOLYLINE
  5
138F
330
2
100
AcDbEntity
  8
0
100
AcDbPolyline
 90
        2
 70
     0
 43
0.0
 10
2507.784899545898
 20
-332.80370125741
 10
2507.809548217379
 20
-333.5290970086784
  0
LWPOLYLINE
  5
1390
330
2
100
AcDbEntity
  8
0
100
AcDbPolyline
 90
        4
 70
     0
 43
0.0
 10
2506.659814920043
 20
-334.2297875430257
 10
2507.04967002851
 20
-334.2297875430257
 10
2507.04967002851
 20
-334.2297875430257
 10
2506.191042938882
 20
-334.2297875430257
  0
LWPOLYLINE
  5
1391
330
2
100
AcDbEntity
  8
0
100
AcDbPolyline
 90
        2
 70
     0
 43
0.0
 10
2507.597353741872
 20
-333.8695519642923
 10
2507.04967002851
 20
-334.2297875430257
  0
ARC
  5
1392
330
2
100
AcDbEntity
  8
0
100
AcDbCircle
 10
2515.420431183224
 20
-347.0622153004077
 30
0.0
 40
0.56
100
AcDbArc
 50
90.0
 51
180.0
  0
LINE
  5
1393
330
2
100
AcDbEntity
  8
0
100
AcDbLine
 10
2515.756431183225
 20
-346.5022153004078
 30
0.0
 11
2515.754079048495
 21
-355.0144622364043
 31
0.0
  0
ARC
  5
1394
330
2
100
AcDbEntity
  8
0
100
AcDbCircle
 10
2514.221626727024
 20
-348.6835757382005
 30
0.0
 40
0.168
100
AcDbArc
 50
0.0
 51
90.0
  0
CIRCLE
  5
1395
330
2
100
AcDbEntity
  8
0
100
AcDbCircle
 10
2514.064638256149
 20
-348.8801487133825
 30
0.0
 40
0.112
  0
ARC
  5
1396
330
2
100
AcDbEntity
  8
0
100
AcDbCircle
 10
2511.967626727025
 20
-348.6835756839234
 30
0.0
 40
0.168
100
AcDbArc
 50
90.0
 51
180.0
  0
CIRCLE
  5
1397
330
2
100
AcDbEntity
  8
0
100
AcDbCircle
 10
2512.127132746671
 20
-348.8801487133825
 30
0.0
 40
0.112
  0
LINE
  5
1398
330
2
100
AcDbEntity
  8
0
100
AcDbLine
 10
2514.221626727024
 20
-348.5155757382004
 30
0.0
 11
2511.967626417598
 21
-348.5155757382004
 31
0.0
  0
CIRCLE
  5
1399
330
2
100
AcDbEntity
  8
0
100
AcDbCircle
 10
2514.115276456331
 20
-352.7183756159901
 30
0.0
 40
0.112
  0
LINE
  5
139A
330
2
100
AcDbEntity
  8
0
100
AcDbLine
 10
2514.565097787957
 20
-353.6024159122
 30
0.0
 11
2514.860431183225
 21
-353.6024159122
 31
0.0
  0
ARC
  5
139B
330
2
100
AcDbEntity
  8
0
100
AcDbCircle
 10
2514.221626727024
 20
-352.8303756839235
 30
0.0
 40
0.168
100
AcDbArc
 50
270.0
 51
0.0
  0
CIRCLE
  5
139C
330
2
100
AcDbEntity
  8
0
100
AcDbCircle
 10
2512.079626503478
 20
-352.7183756159901
 30
0.0
 40
0.112
  0
LWPOLYLINE
  5
139D
330
2
100
AcDbEntity
  8
0
100
AcDbPolyline
 90
        2
 70
     0
 43
0.0
 10
2512.770547067445
 20
-353.5450166715394
 10
2512.921730904413
 20
-353.5514369721744
  0
ARC
  5
139E
330
2
100
AcDbEntity
  8
0
100
AcDbCircle
 10
2511.967626727025
 20
-352.8303756839235
 30
0.0
 40
0.168
100
AcDbArc
 50
180.0
 51
270.0
  0
LINE
  5
139F
330
2
100
AcDbEntity
  8
0
100
AcDbLine
 10
2514.221626727024
 20
-352.9983756839234
 30
0.0
 11
2511.967626727025
 21
-352.9983756839234
 31
0.0
  0
LINE
  5
13A0
330
2
100
AcDbEntity
  8
0
100
AcDbLine
 10
2514.389626727025
 20
-348.6835757382005
 30
0.0
 11
2514.389626727025
 21
-352.8303756839235
 31
0.0
  0
LINE
  5
13A1
330
2
100
AcDbEntity
  8
0
100
AcDbLine
 10
2511.799626727025
 20
-352.8303756839235
 30
0.0
 11
2511.799626727025
 21
-348.6835756839234
 31
0.0
  0
LINE
  5
13A2
330
2
100
AcDbEntity
  8
0
100
AcDbLine
 10
2515.420276442013
 20
-355.0143699988659
 30
0.0
 11
2515.754079048495
 21
-355.0144622364043
 31
0.0
  0
ARC
  5
13A3
330
2
100
AcDbEntity
  8
0
100
AcDbCircle
 10
2515.420431183224
 20
-354.4543700202452
 30
0.0
 40
0.56
100
AcDbArc
 50
180.0
 51
269.9841678242456
  0
LINE
  5
13A4
330
2
100
AcDbEntity
  8
0
100
AcDbLine
 10
2514.860431183225
 20
-347.0622153004077
 30
0.0
 11
2514.860431183225
 21
-354.4543700202452
 31
0.0
  0
LINE
  5
13A5
330
2
100
AcDbEntity
  8
0
100
AcDbLine
 10
2515.756431183225
 20
-346.5022153004078
 30
0.0
 11
2515.420431183224
 21
-346.5022153004078
 31
0.0
  0
LINE
  5
13A6
330
2
100
AcDbEntity
  8
0
100
AcDbLine
 10
2527.344252387846
 20
-327.6284372816309
 30
0.0
 11
2523.424252387846
 21
-327.6284372816309
 31
0.0
  0
LINE
  5
13A7
330
2
100
AcDbEntity
  8
0
100
AcDbLine
 10
2527.373877779661
 20
-327.0762044840795
 30
0.0
 11
2523.515915669833
 21
-327.0762044840795
 31
0.0
  0
LINE
  5
13A8
330
2
100
AcDbEntity
  8
0
100
AcDbLine
 10
2521.688252387846
 20
-328.5244372816308
 30
0.0
 11
2529.080252387846
 21
-328.5244372816308
 31
0.0
  0
CIRCLE
  5
13A9
330
2
100
AcDbEntity
  8
0
100
AcDbCircle
 10
2521.856252387847
 20
-327.7964372816309
 30
0.0
 40
0.28
  0
ARC
  5
13AA
330
2
100
AcDbEntity
  8
0
100
AcDbCircle
 10
2523.424252387846
 20
-327.0684372816309
 30
0.0
 40
0.56
100
AcDbArc
 50
180.0
 51
270.0
  0
LWPOLYLINE
  5
13AB
330
2
100
AcDbEntity
  8
0
100
AcDbPolyline
 90
       20
 70
     0
 43
0.0
 10
2514.41357757963
 20
-327.1060336173982
 10
2514.377182878049
 20
-327.1330417758882
 10
2514.377182878049
 20
-327.1330417758882
 10
2514.349974240269
 20
-327.173605418569
 10
2514.349974240269
 20
-327.173605418569
 10
2514.340788176467
 20
-327.2141639207552
 10
2514.340788176467
 20
-327.2141639207552
 10
2514.340788176467
 20
-327.2592460581662
 10
2514.340788176467
 20
-327.2592460581662
 10
2514.359062634676
 20
-327.2998045603525
 10
2514.359062634676
 20
-327.2998045603525
 10
2514.386317536907
 20
-327.3358497083031
 10
2514.386317536907
 20
-327.3358497083031
 10
2514.422712238487
 20
-327.3583907770086
 10
2514.422712238487
 20
-327.3583907770086
 10
2514.468246739421
 20
-327.3719925256505
 10
2514.468246739421
 20
-327.3719925256505
 10
2514.513678430463
 20
-327.3673763615234
 10
2514.513678430463
 20
-327.3673763615234
 10
2514.554643031721
 20
-327.353923687224
  0
LINE
  5
13AC
330
2
100
AcDbEntity
  8
0
100
AcDbLine
 10
2515.750861821486
 20
-328.5244372816308
 30
0.0
 11
2515.414837633834
 21
-328.5244372816308
 31
0.0
  0
ARC
  5
13AD
330
2
100
AcDbEntity
  8
0
100
AcDbCircle
 10
2515.414837633834
 20
-327.9644372816309
 30
0.0
 40
0.56
100
AcDbArc
 50
180.0
 51
270.0
  0
ARC
  5
13AE
330
2
100
AcDbEntity
  8
0
100
AcDbCircle
 10
2521.688252387846
 20
-327.9644372816309
 30
0.0
 40
0.56
100
AcDbArc
 50
180.0
 51
270.0
  0
LINE
  5
13AF
330
2
100
AcDbEntity
  8
0
100
AcDbLine
 10
2521.411765840098
 20
-327.7964372816309
 30
0.0
 11
2522.300738935594
 21
-327.7964372816309
 31
0.0
  0
CIRCLE
  5
13B0
330
2
100
AcDbEntity
  8
0
100
AcDbCircle
 10
2528.912252387846
 20
-327.7964372816309
 30
0.0
 40
0.28
  0
LINE
  5
13B1
330
2
100
AcDbEntity
  8
0
100
AcDbLine
 10
2528.467765840098
 20
-327.7964372816309
 30
0.0
 11
2529.356738935593
 21
-327.7964372816309
 31
0.0
  0
ARC
  5
13B2
330
2
100
AcDbEntity
  8
0
100
AcDbCircle
 10
2527.344252387846
 20
-327.0684372816309
 30
0.0
 40
0.56
100
AcDbArc
 50
270.0
 51
0.0
  0
ARC
  5
13B3
330
2
100
AcDbEntity
  8
0
100
AcDbCircle
 10
2529.080252387846
 20
-327.9644372816309
 30
0.0
 40
0.56
100
AcDbArc
 50
270.0
 51
0.0
  0
LINE
  5
13B4
330
2
100
AcDbEntity
  8
0
100
AcDbLine
 10
2525.384252387846
 20
-327.8524372816308
 30
0.0
 11
2525.384252387846
 21
-327.8524372816308
 31
0.0
  0
LWPOLYLINE
  5
13B5
330
2
100
AcDbEntity
  8
0
100
AcDbPolyline
 90
        2
 70
     0
 43
0.0
 10
2514.586416428681
 20
-317.780353981635
 10
2505.880258917946
 20
-318.2130808148463
  0
DIMENSION
  5
13B6
330
2
100
AcDbEntity
  8
0
100
AcDbDimension
  2
*D8
 10
2515.750861821486
 20
-314.7804196166317
 30
0.0
 11
2507.506315582973
 21
-313.8804196166318
 31
0.0
 70
    32
  1
294
 71
     5
 42
16.48909247702613
  3
ISO-25
100
AcDbAlignedDimension
 13
2499.26176934446
 23
-319.9889571942217
 33
0.0
 14
2515.750861821486
 24
-317.2124372816309
 34
0.0
100
AcDbRotatedDimension
1001
ACAD
1000
DSTYLE
1002
{
1070
   147
1040
0.4
1070
    41
1040
2.0
1070
   140
1040
1.0
1002
}
  0
LWPOLYLINE
  5
13B7
330
2
100
AcDbEntity
  8
0
100
AcDbPolyline
 90
       22
 70
     0
 43
0.0
 10
2511.92997846933
 20
-322.7339041891412
 10
2511.825359123767
 20
-322.5716033539668
 10
2511.825359123767
 20
-322.5716033539668
 10
2511.707138029562
 20
-322.4139289639087
 10
2511.707138029562
 20
-322.4139289639087
 10
2511.579730871554
 20
-322.2696507027095
 10
2511.579730871554
 20
-322.2696507027095
 10
2511.434198329679
 20
-322.1389279257012
 10
2511.434198329679
 20
-322.1389279257012
 10
2511.284101028622
 20
-322.017247278648
 10
2511.284101028622
 20
-322.017247278648
 10
2511.120299169032
 20
-321.9135326601297
 10
2511.120299169032
 20
-321.9135326601297
 10
2510.947460319982
 20
-321.8233735258021
 10
2510.947460319982
 20
-321.8233735258021
 10
2510.765533076525
 20
-321.7467647351708
 10
2510.765533076525
 20
-321.7467647351708
 10
2510.578989668942
 20
-321.6837165692248
 10
2510.578989668942
 20
-321.6837165692248
 10
2510.388030576519
 20
-321.6386344318137
 10
2510.388030576519
 20
-321.6386344318137
 10
2510.196968674205
 20
-321.6115800088725
  0
LWPOLYLINE
  5
13B8
330
2
100
AcDbEntity
  8
0
100
AcDbPolyline
 90
        2
 70
     0
 43
0.0
 10
2495.57205599234
 20
-324.3361912072584
 10
2498.991641495108
 20
-322.7374202874296
  0
LWPOLYLINE
  5
13B9
330
2
100
AcDbEntity
  8
0
100
AcDbPolyline
 90
        8
 70
     0
 43
0.0
 10
2502.855396572007
 20
-320.8813162092429
 10
2502.809815806623
 20
-320.8903531987033
 10
2502.809815806623
 20
-320.8903531987033
 10
2502.773421105041
 20
-320.91294053186
 10
2502.773421105041
 20
-320.91294053186
 10
2502.746161062317
 20
-320.9489856798105
 10
2502.746161062317
 20
-320.9489856798105
 10
2502.741642567587
 20
-320.9940678172216
  0
LWPOLYLINE
  5
13BA
330
2
100
AcDbEntity
  8
0
100
AcDbPolyline
 90
        2
 70
     0
 43
0.0
 10
2502.814334301353
 20
-320.8903531987033
 10
2502.805297311892
 20
-320.8813162092429
  0
LWPOLYLINE
  5
13BB
330
2
100
AcDbEntity
  8
0
100
AcDbPolyline
 90
        6
 70
     0
 43
0.0
 10
2499.5984100531
 20
-320.9760452432464
 10
2499.589326799187
 20
-320.9309631058353
 10
2499.589326799187
 20
-320.9309631058353
 10
2499.557496856787
 20
-320.8903531987033
 10
2499.557496856787
 20
-320.8903531987033
 10
2499.516537396025
 20
-320.8678635349436
  0
LWPOLYLINE
  5
13BC
330
2
100
AcDbEntity
  8
0
100
AcDbPolyline
 90
       12
 70
     0
 43
0.0
 10
2499.26176934446
 20
-320.5478883097111
 10
2499.270904003317
 20
-320.6199734651177
 10
2499.270904003317
 20
-320.6199734651177
 10
2499.293645551311
 20
-320.6875915307396
 10
2499.293645551311
 20
-320.6875915307396
 10
2499.334661557514
 20
-320.750696242126
 10
2499.334661557514
 20
-320.750696242126
 10
2499.384658007738
 20
-320.8047125591061
 10
2499.384658007738
 20
-320.8047125591061
 10
2499.443742852367
 20
-320.8453738711838
 10
2499.443742852367
 20
-320.8453738711838
 10
2499.516537396025
 20
-320.8678635349436
  0
LWPOLYLINE
  5
13BD
330
2
100
AcDbEntity
  8
0
100
AcDbPolyline
 90
        2
 70
     0
 43
0.0
 10
2499.5984100531
 20
-321.3140893069053
 10
2499.37552334888
 20
-321.3140893069053
  0
LWPOLYLINE
  5
13BE
330
2
100
AcDbEntity
  8
0
100
AcDbPolyline
 90
        2
 70
     0
 43
0.0
 10
2499.5984100531
 20
-321.724275071411
 10
2499.37552334888
 20
-321.724275071411
  0
LWPOLYLINE
  5
13BF
330
2
100
AcDbEntity
  8
0
100
AcDbPolyline
 90
        8
 70
     0
 43
0.0
 10
2499.37552334888
 20
-321.3140893069053
 10
2499.352833205831
 20
-321.3636385341009
 10
2499.352833205831
 20
-321.3636385341009
 10
2499.343698546975
 20
-321.4132391662423
 10
2499.343698546975
 20
-321.4132391662423
 10
2499.352833205831
 20
-321.4673531526191
 10
2499.352833205831
 20
-321.4673531526191
 10
2499.37552334888
 20
-321.516850974869
  0
LWPOLYLINE
  5
13C0
330
2
100
AcDbEntity
  8
0
100
AcDbPolyline
 90
        8
 70
     0
 43
0.0
 10
2499.37552334888
 20
-321.516850974869
 10
2499.352833205831
 20
-321.570964961246
 10
2499.352833205831
 20
-321.570964961246
 10
2499.343698546975
 20
-321.6205655933872
 10
2499.343698546975
 20
-321.6205655933872
 10
2499.352833205831
 20
-321.6746281748185
 10
2499.352833205831
 20
-321.6746281748185
 10
2499.37552334888
 20
-321.724275071411
  0
LWPOLYLINE
  5
13C1
330
2
100
AcDbEntity
  8
0
100
AcDbPolyline
 90
        2
 70
     0
 43
0.0
 10
2499.26176934446
 20
-320.5478883097111
 10
2499.26176934446
 20
-319.9889571942217
  0
LWPOLYLINE
  5
13C2
330
2
100
AcDbEntity
  8
0
100
AcDbPolyline
 90
       18
 70
     0
 43
0.0
 10
2510.196968674205
 20
-321.6115800088725
 10
2509.287188523074
 20
-321.4628346578889
 10
2509.287188523074
 20
-321.4628346578889
 10
2508.372946422653
 20
-321.3321118808806
 10
2508.372946422653
 20
-321.3321118808806
 10
2507.45860151234
 20
-321.214944588063
 10
2507.45860151234
 20
-321.214944588063
 10
2506.539738107297
 20
-321.1157536047695
 10
2506.539738107297
 20
-321.1157536047695
 10
2505.620920966705
 20
-321.0301078246776
 10
2505.620920966705
 20
-321.0301078246776
 10
2504.697492802481
 20
-320.9670596587316
 10
2504.697492802481
 20
-320.9670596587316
 10
2503.778675661889
 20
-320.9174590265903
 10
2503.778675661889
 20
-320.9174590265903
 10
2502.855396572007
 20
-320.8813162092429
 10
2502.855396572007
 20
-320.8813162092429
 10
2499.53932520847
 20
-320.8813162092429
  0
LWPOLYLINE
  5
13C3
330
2
100
AcDbEntity
  8
0
100
AcDbPolyline
 90
       38
 70
     0
 43
0.0
 10
2505.880258917946
 20
-318.2130808148463
 10
2504.956825613228
 20
-318.2717132959536
 10
2504.956825613228
 20
-318.2717132959536
 10
2504.037962208185
 20
-318.3527840358749
 10
2504.037962208185
 20
-318.3527840358749
 10
2503.119196472539
 20
-318.4519287547171
 10
2503.119196472539
 20
-318.4519287547171
 10
2502.204805297775
 20
-318.5736659472107
 10
2502.204805297775
 20
-318.5736659472107
 10
2501.290558056859
 20
-318.717892803464
 10
2501.290558056859
 20
-318.717892803464
 10
2500.385347805404
 20
-318.8801370931981
 10
2500.385347805404
 20
-318.8801370931981
 10
2500.248903657935
 20
-318.8891740826587
 10
2500.248903657935
 20
-318.8891740826587
 10
2500.117029410142
 20
-318.9116637464185
 10
2500.117029410142
 20
-318.9116637464185
 10
2499.985052352458
 20
-318.9522736535504
 10
2499.985052352458
 20
-318.9522736535504
 10
2499.862261358577
 20
-319.0063413754762
 10
2499.862261358577
 20
-319.0063413754762
 10
2499.748512494651
 20
-319.074010846044
 10
2499.748512494651
 20
-319.074010846044
 10
2499.63927698496
 20
-319.1595538162443
 10
2499.63927698496
 20
-319.1595538162443
 10
2499.5438437032
 20
-319.2542314453022
 10
2499.5438437032
 20
-319.2542314453022
 10
2499.461919641179
 20
-319.3579409233259
 10
2499.461919641179
 20
-319.3579409233259
 10
2499.389176502468
 20
-319.4751082161435
 10
2499.389176502468
 20
-319.4751082161435
 10
2499.334661557514
 20
-319.5967940036913
 10
2499.334661557514
 20
-319.5967940036913
 10
2499.293645551311
 20
-319.7229982859694
 10
2499.293645551311
 20
-319.7229982859694
 10
2499.270904003317
 20
-319.858239557708
 10
2499.270904003317
 20
-319.858239557708
 10
2499.26176934446
 20
-319.9889571942217
  0
LWPOLYLINE
  5
13C4
330
2
100
AcDbEntity
  8
0
100
AcDbPolyline
 90
        4
 70
     0
 43
0.0
 10
2502.524729118062
 20
-322.7176396643101
 10
2502.524729118062
 20
-322.4364186276685
 10
2502.524729118062
 20
-322.4364186276685
 10
2502.287885971075
 20
-322.4364186276685
  0
LWPOLYLINE
  5
13C5
330
2
100
AcDbEntity
  8
0
100
AcDbPolyline
 90
        2
 70
     0
 43
0.0
 10
2503.294549023435
 20
-322.7176396643101
 10
2502.524729118062
 20
-322.7176396643101
  0
LWPOLYLINE
  5
13C6
330
2
100
AcDbEntity
  8
0
100
AcDbPolyline
 90
        2
 70
     0
 43
0.0
 10
2499.598610532388
 20
-322.7176396643101
 10
2499.810810148389
 20
-322.7176396643101
  0
LINE
  5
13C7
330
2
100
AcDbEntity
  8
0
100
AcDbLine
 10
2499.598410053099
 20
-322.4364186276685
 30
0.0
 11
2502.741642567587
 21
-322.4364186276685
 31
0.0
  0
LWPOLYLINE
  5
13C8
330
2
100
AcDbEntity
  8
0
100
AcDbPolyline
 90
        4
 70
     0
 43
0.0
 10
2499.810810148389
 20
-322.7176396643101
 10
2499.810810148389
 20
-322.4364186276685
 10
2499.810810148389
 20
-322.4364186276685
 10
2502.287885971075
 20
-322.4364186276685
  0
LWPOLYLINE
  5
13C9
330
2
100
AcDbEntity
  8
0
100
AcDbPolyline
 90
        2
 70
     0
 43
0.0
 10
2499.08541439712
 20
-322.7176396643101
 10
2502.524729118062
 20
-322.7176396643101
  0
LWPOLYLINE
  5
13CA
330
2
100
AcDbEntity
  8
0
100
AcDbPolyline
 90
        2
 70
     0
 43
0.0
 10
2506.76342672867
 20
-324.3361912072584
 10
2503.294549023435
 20
-322.7176396643101
  0
LWPOLYLINE
  5
13CB
330
2
100
AcDbEntity
  8
0
100
AcDbPolyline
 90
        4
 70
     0
 43
0.0
 10
2499.08541439712
 20
-322.7176396643101
 10
2499.040990243015
 20
-322.7226105225628
 10
2499.040990243015
 20
-322.7226105225628
 10
2498.991641495108
 20
-322.7374202874296
  0
LWPOLYLINE
  5
13CC
330
2
100
AcDbEntity
  8
0
100
AcDbPolyline
 90
        2
 70
     0
 43
0.0
 10
2499.5984100531
 20
-322.4364186276685
 10
2499.5984100531
 20
-320.9760452432464
  0
LWPOLYLINE
  5
13CD
330
2
100
AcDbEntity
  8
0
100
AcDbPolyline
 90
        2
 70
     0
 43
0.0
 10
2502.741642567587
 20
-322.4364186276685
 10
2502.741642567587
 20
-320.9940678172216
  0
DIMENSION
  5
13CE
330
2
100
AcDbEntity
  8
0
100
AcDbDimension
  2
*D9
 10
2528.660252387846
 20
-314.8613484710328
 30
0.0
 11
2523.326919054513
 21
-314.8613484710328
 31
0.0
 70
   160
  1
9
 71
     5
 42
0.5039999999999055
  3
ISO-25
100
AcDbAlignedDimension
 13
2529.164252387846
 23
-317.9404372816309
 33
0.0
 14
2528.660252387846
 24
-317.9404372816309
 34
0.0
100
AcDbRotatedDimension
1001
ACAD
1000
DSTYLE
1002
{
1070
   147
1040
0.4
1070
   140
1040
1.0
1070
    41
1040
2.0
1002
}
  0
DIMENSION
  5
13CF
330
2
100
AcDbEntity
  8
0
100
AcDbDimension
  2
*D10
 10
2529.360252387846
 20
-320.0483096351623
 30
0.0
 11
2534.426919054513
 21
-319.1483096351623
 31
0.0
 70
    32
  1
16
 71
     5
 42
0.8959999999997307
  3
ISO-25
100
AcDbAlignedDimension
 13
2528.464252387846
 23
-318.6124372816308
 33
0.0
 14
2529.360252387846
 24
-318.6124372816308
 34
0.0
100
AcDbRotatedDimension
1001
ACAD
1000
DSTYLE
1002
{
1070
   147
1040
0.4
1070
   140
1040
1.0
1070
    41
1040
2.0
1002
}
  0
ARC
  5
13D0
330
2
100
AcDbEntity
  8
0
100
AcDbCircle
 10
2529.080252387846
 20
-317.7724372816309
 30
0.0
 40
0.56
100
AcDbArc
 50
0.0
 51
90.0
  0
ARC
  5
13D1
330
2
100
AcDbEntity
  8
0
100
AcDbCircle
 10
2521.688252387846
 20
-317.7724372816309
 30
0.0
 40
0.56
100
AcDbArc
 50
90.0
 51
180.0
  0
LINE
  5
13D2
330
2
100
AcDbEntity
  8
0
100
AcDbLine
 10
2523.424252387846
 20
-318.1084372816309
 30
0.0
 11
2527.344252387846
 21
-318.1084372816309
 31
0.0
  0
LINE
  5
13D3
330
2
100
AcDbEntity
  8
0
100
AcDbLine
 10
2529.080252387846
 20
-317.2124372816309
 30
0.0
 11
2521.688252387846
 21
-317.2124372816309
 31
0.0
  0
LWPOLYLINE
  5
13D4
330
2
100
AcDbEntity
  8
0
100
AcDbPolyline
 90
        4
 70
     0
 43
0.0
 10
2525.384252387846
 20
-319.2956354372988
 10
2524.518781479704
 20
-319.2956354372988
 42
0.4142135623730939
 10
2523.678781479703
 20
-320.1356354372988
 10
2523.678781479703
 20
-321.038107296383
  0
LINE
  5
13D5
330
2
100
AcDbEntity
  8
0
100
AcDbLine
 10
2523.678781479703
 20
-321.038107296383
 30
0.0
 11
2527.210138211136
 21
-321.038107296383
 31
0.0
  0
LINE
  5
13D6
330
2
100
AcDbEntity
  8
0
100
AcDbLine
 10
2525.384252387846
 20
-322.8684372816309
 30
0.0
 11
2524.03283759958
 21
-322.8684372816309
 31
0.0
  0
LINE
  5
13D7
330
2
100
AcDbEntity
  8
0
100
AcDbLine
 10
2523.677544415058
 20
-322.5639314635023
 30
0.0
 11
2527.212249034437
 21
-322.5639314635023
 31
0.0
  0
LINE
  5
13D8
330
2
100
AcDbEntity
  8
0
100
AcDbLine
 10
2523.872252387846
 20
-326.7569889498142
 30
0.0
 11
2527.042138211137
 21
-326.7569889498142
 31
0.0
  0
ARC
  5
13D9
330
2
100
AcDbEntity
  8
0
100
AcDbCircle
 10
2521.856252387847
 20
-317.9404372816309
 30
0.0
 40
0.252
100
AcDbArc
 50
0.0
 51
180.2980781471675
  0
LINE
  5
13DA
330
2
100
AcDbEntity
  8
0
100
AcDbLine
 10
2523.424252387846
 20
-318.6684372816309
 30
0.0
 11
2524.016506977151
 21
-319.4623447689499
 31
0.0
  0
LINE
  5
13DB
330
2
100
AcDbEntity
  8
0
100
AcDbLine
 10
2523.678781479703
 20
-321.038107296383
 30
0.0
 11
2523.114117193955
 21
-321.9655020370954
 31
0.0
  0
LINE
  5
13DC
330
2
100
AcDbEntity
  8
0
100
AcDbLine
 10
2521.856252387847
 20
-317.1798184426103
 30
0.0
 11
2521.856252387847
 21
-318.7010561206514
 31
0.0
  0
LINE
  5
13DD
330
2
100
AcDbEntity
  8
0
100
AcDbLine
 10
2521.856252387847
 20
-317.9404372816309
 30
0.0
 11
2521.856252387847
 21
-319.461674959672
 31
0.0
  0
LINE
  5
13DE
330
2
100
AcDbEntity
  8
0
100
AcDbLine
 10
2521.604252387847
 20
-317.9404372816309
 30
0.0
 11
2521.604252387847
 21
-318.2420320980818
 31
0.0
  0
ARC
  5
13DF
330
2
100
AcDbEntity
  8
0
100
AcDbCircle
 10
2523.424252387846
 20
-318.6684372816309
 30
0.0
 40
0.56
100
AcDbArc
 50
90.0
 51
180.0
  0
LINE
  5
13E0
330
2
100
AcDbEntity
  8
0
100
AcDbLine
 10
2522.108252387846
 20
-317.9404372816309
 30
0.0
 11
2522.108252387846
 21
-318.2420320980818
 31
0.0
  0
LINE
  5
13E1
330
2
100
AcDbEntity
  8
0
100
AcDbLine
 10
2524.422673785025
 20
-322.8684372816309
 30
0.0
 11
2524.422673785025
 21
-322.8684372816309
 31
0.0
  0
ARC
  5
13E2
330
2
100
AcDbEntity
  8
0
100
AcDbCircle
 10
2523.677544415058
 20
-322.7319314635022
 30
0.0
 40
0.168
100
AcDbArc
 50
90.0
 51
177.785383922783
  0
ARC
  5
13E3
330
2
100
AcDbEntity
  8
0
100
AcDbCircle
 10
2524.03283759958
 20
-323.0364372816308
 30
0.0
 40
0.168
100
AcDbArc
 50
90.0
 51
177.4145885483024
  0
ARC
  5
13E4
330
2
100
AcDbEntity
  8
0
100
AcDbCircle
 10
2523.872252387846
 20
-326.5889889498142
 30
0.0
 40
0.168
100
AcDbArc
 50
180.0
 51
270.0
  0
LINE
  5
13E5
330
2
100
AcDbEntity
  8
0
100
AcDbLine
 10
2523.865008608855
 20
-323.0288590316947
 30
0.0
 11
2523.704252387847
 21
-326.5889889498142
 31
0.0
  0
LINE
  5
13E6
330
2
100
AcDbEntity
  8
0
100
AcDbLine
 10
2523.347915669833
 20
-326.9082044840794
 30
0.0
 11
2523.509669895734
 21
-322.725439486798
 31
0.0
  0
LINE
  5
13E7
330
2
100
AcDbEntity
  8
0
100
AcDbLine
 10
2523.561068349033
 20
-322.6108640193104
 30
0.0
 11
2524.45620807002
 21
-321.038107296383
 31
0.0
  0
LWPOLYLINE
  5
13E8
330
2
100
AcDbEntity
  8
0
100
AcDbPolyline
 90
       14
 70
     0
 43
0.0
 10
2514.586416428681
 20
-317.780353981635
 10
2514.659257236789
 20
-317.7667984974442
 10
2514.659257236789
 20
-317.7667984974442
 10
2514.722911981095
 20
-317.7397903389543
 10
2514.722911981095
 20
-317.7397903389543
 10
2514.77752973594
 20
-317.6947133420378
 10
2514.77752973594
 20
-317.6947133420378
 10
2514.818442932252
 20
-317.6361271253816
 10
2514.818442932252
 20
-317.6361271253816
 10
2514.845749239428
 20
-317.5729761495442
 10
2514.845749239428
 20
-317.5729761495442
 10
2514.854837633833
 20
-317.5008395891919
 10
2514.854837633833
 20
-317.5008395891919
 10
2514.854837633833
 20
-317.4873869148926
  0
LWPOLYLINE
  5
13E9
330
2
100
AcDbEntity
  8
0
100
AcDbPolyline
 90
        2
 70
     0
 43
0.0
 10
2515.750861821486
 20
-317.2124372816309
 10
2515.136809182683
 20
-317.2124372816309
  0
LWPOLYLINE
  5
13EA
330
2
100
AcDbEntity
  8
0
100
AcDbPolyline
 90
       12
 70
     0
 43
0.0
 10
2515.136809182683
 20
-317.2124372816309
 10
2515.064071184466
 20
-317.2214228661457
 10
2515.064071184466
 20
-317.2214228661457
 10
2514.995851680979
 20
-317.2484824295815
 10
2514.995851680979
 20
-317.2484824295815
 10
2514.936664026457
 20
-317.2935131620468
 10
2514.936664026457
 20
-317.2935131620468
 10
2514.891232335415
 20
-317.352145643154
 10
2514.891232335415
 20
-317.352145643154
 10
2514.863874623294
 20
-317.4152966189915
 10
2514.863874623294
 20
-317.4152966189915
 10
2514.854837633833
 20
-317.4873869148926
  0
LWPOLYLINE
  5
13EB
330
2
100
AcDbEntity
  8
0
100
AcDbPolyline
 90
       20
 70
     0
 43
0.0
 10
2511.889065273019
 20
-322.6662347185734
 10
2511.852670571438
 20
-322.6933405464603
 10
2511.852670571438
 20
-322.6933405464603
 10
2511.829975287894
 20
-322.7293856944108
 10
2511.829975287894
 20
-322.7293856944108
 10
2511.816322134307
 20
-322.7744626913273
 10
2511.816322134307
 20
-322.7744626913273
 10
2511.820840629037
 20
-322.8150263340082
 10
2511.820840629037
 20
-322.8150263340082
 10
2511.834447518173
 20
-322.8601033309247
 10
2511.834447518173
 20
-322.8601033309247
 10
2511.861753825349
 20
-322.891629984145
 10
2511.861753825349
 20
-322.891629984145
 10
2511.898148526931
 20
-322.918638142635
 10
2511.898148526931
 20
-322.918638142635
 10
2511.943631622918
 20
-322.9276751320956
 10
2511.943631622918
 20
-322.9276751320956
 10
2511.989160983358
 20
-322.9276751320956
 10
2511.989160983358
 20
-322.9276751320956
 10
2512.030074179669
 20
-322.9141196479048
  0
ARC
  5
13EC
330
2
100
AcDbEntity
  8
0
100
AcDbCircle
 10
2521.856252387847
 20
-318.6124372816308
 30
0.0
 40
0.448
100
AcDbArc
 50
124.2288663278117
 51
55.77113367218821
  0
LINE
  5
13ED
330
2
100
AcDbEntity
  8
0
100
AcDbLine
 10
2521.411765840098
 20
-317.9404372816309
 30
0.0
 11
2522.300738935594
 21
-317.9404372816309
 31
0.0
  0
LINE
  5
13EE
330
2
100
AcDbEntity
  8
0
100
AcDbLine
 10
2520.957328643584
 20
-318.6124372816308
 30
0.0
 11
2522.755176132108
 21
-318.6124372816308
 31
0.0
  0
ARC
  5
13EF
330
2
100
AcDbEntity
  8
0
100
AcDbCircle
 10
2528.912252387846
 20
-317.9404372816309
 30
0.0
 40
0.252
100
AcDbArc
 50
0.0
 51
180.2980781471675
  0
LINE
  5
13F0
330
2
100
AcDbEntity
  8
0
100
AcDbLine
 10
2528.467765840098
 20
-317.9404372816309
 30
0.0
 11
2529.356738935593
 21
-317.9404372816309
 31
0.0
  0
LINE
  5
13F1
330
2
100
AcDbEntity
  8
0
100
AcDbLine
 10
2528.013328643584
 20
-318.6124372816308
 30
0.0
 11
2529.811176132108
 21
-318.6124372816308
 31
0.0
  0
LINE
  5
13F2
330
2
100
AcDbEntity
  8
0
100
AcDbLine
 10
2527.210138211136
 20
-321.038107296383
 30
0.0
 11
2527.733734804038
 21
-321.9748964805318
 31
0.0
  0
LINE
  5
13F3
330
2
100
AcDbEntity
  8
0
100
AcDbLine
 10
2527.210138211136
 20
-321.038107296383
 30
0.0
 11
2527.210138211136
 21
-320.1356354372988
 31
0.0
  0
LINE
  5
13F4
330
2
100
AcDbEntity
  8
0
100
AcDbLine
 10
2525.384252387846
 20
-319.2956354372988
 30
0.0
 11
2526.370138211136
 21
-319.2956354372988
 31
0.0
  0
ARC
  5
13F5
330
2
100
AcDbEntity
  8
0
100
AcDbCircle
 10
2526.370138211136
 20
-320.1356354372988
 30
0.0
 40
0.8399999999999998
100
AcDbArc
 50
0.0
 51
90.0
  0
LINE
  5
13F6
330
2
100
AcDbEntity
  8
0
100
AcDbLine
 10
2527.344252387846
 20
-318.6684372816309
 30
0.0
 11
2526.834758784362
 21
-319.4358299479411
 31
0.0
  0
LINE
  5
13F7
330
2
100
AcDbEntity
  8
0
100
AcDbLine
 10
2528.912252387846
 20
-317.1798184426103
 30
0.0
 11
2528.912252387846
 21
-318.7010561206514
 31
0.0
  0
ARC
  5
13F8
330
2
100
AcDbEntity
  8
0
100
AcDbCircle
 10
2527.344252387846
 20
-318.6684372816309
 30
0.0
 40
0.56
100
AcDbArc
 50
0.0
 51
90.0
  0
ARC
  5
13F9
330
2
100
AcDbEntity
  8
0
100
AcDbCircle
 10
2528.912252387846
 20
-318.6124372816308
 30
0.0
 40
0.448
100
AcDbArc
 50
124.2288663278117
 51
55.77113367218821
  0
LINE
  5
13FA
330
2
100
AcDbEntity
  8
0
100
AcDbLine
 10
2528.912252387846
 20
-317.9404372816309
 30
0.0
 11
2528.912252387846
 21
-319.461674959672
 31
0.0
  0
LINE
  5
13FB
330
2
100
AcDbEntity
  8
0
100
AcDbLine
 10
2528.660252387846
 20
-317.9404372816309
 30
0.0
 11
2528.660252387846
 21
-318.2420320980818
 31
0.0
  0
LINE
  5
13FC
330
2
100
AcDbEntity
  8
0
100
AcDbLine
 10
2529.164252387846
 20
-317.9404372816309
 30
0.0
 11
2529.164252387846
 21
-318.2420320980818
 31
0.0
  0
ARC
  5
13FD
330
2
100
AcDbEntity
  8
0
100
AcDbCircle
 10
2527.212249034437
 20
-322.7319314635022
 30
0.0
 40
0.168
100
AcDbArc
 50
2.214616077216944
 51
90.0
  0
ARC
  5
13FE
330
2
100
AcDbEntity
  8
0
100
AcDbCircle
 10
2526.881552999403
 20
-323.0364372816309
 30
0.0
 40
0.168
100
AcDbArc
 50
2.585411451697519
 51
90.0
  0
LINE
  5
13FF
330
2
100
AcDbEntity
  8
0
100
AcDbLine
 10
2526.881552999403
 20
-322.8684372816309
 30
0.0
 11
2525.384252387846
 21
-322.8684372816309
 31
0.0
  0
ARC
  5
1400
330
2
100
AcDbEntity
  8
0
100
AcDbCircle
 10
2527.042138211137
 20
-326.5889889498142
 30
0.0
 40
0.168
100
AcDbArc
 50
270.0
 51
0.0
  0
LINE
  5
1401
330
2
100
AcDbEntity
  8
0
100
AcDbLine
 10
2527.210138211136
 20
-326.5889889498142
 30
0.0
 11
2527.049381990128
 21
-323.0288590316947
 31
0.0
  0
LINE
  5
1402
330
2
100
AcDbEntity
  8
0
100
AcDbLine
 10
2527.380123553761
 20
-322.725439486798
 30
0.0
 11
2527.541877779661
 21
-326.9082044840794
 31
0.0
  0
LINE
  5
1403
330
2
100
AcDbEntity
  8
0
100
AcDbLine
 10
2527.733734804038
 20
-321.9748964805318
 30
0.0
 11
2527.822221765282
 21
-326.917896877397
 31
0.0
  0
LINE
  5
1404
330
2
100
AcDbEntity
  8
0
100
AcDbLine
 10
2527.328725100463
 20
-322.6108640193104
 30
0.0
 11
2526.500662415422
 21
-321.038107296383
 31
0.0
  0
ENDSEC
  0
SECTION
  2
OBJECTS
  0
DICTIONARY
  5
7
330
0
100
AcDbDictionary
281
     1
  3
ACAD_GROUP
350
C6
  3
ACAD_LAYOUT
350
B4
  3
ACAD_MLINESTYLE
350
C7
  3
ACAD_PLOTSETTINGS
350
C8
  3
ACAD_PLOTSTYLENAME
350
6
  0
DICTIONARY
  5
C6
102
{ACAD_REACTORS
330
7
102
}
330
7
100
AcDbDictionary
281
     1
  0
DICTIONARY
  5
B4
102
{ACAD_REACTORS
330
7
102
}
330
7
100
AcDbDictionary
281
     1
  3
Model
350
B3
  3
ﾚｲｱｳﾄ1
350
B8
  0
DICTIONARY
  5
C7
102
{ACAD_REACTORS
330
7
102
}
330
7
100
AcDbDictionary
281
     1
  3
Standard
350
C9
  0
DICTIONARY
  5
C8
102
{ACAD_REACTORS
330
7
102
}
330
7
100
AcDbDictionary
281
     1
  0
ACDBDICTIONARYWDFLT
  5
6
102
{ACAD_REACTORS
330
7
102
}
330
7
100
AcDbDictionary
281
     1
  3
Normal
350
5
100
AcDbDictionaryWithDefault
340
5
  0
LAYOUT
  5
B3
102
{ACAD_REACTORS
330
B4
102
}
330
B4
100
AcDbPlotSettings
  1

  2
いきなりPDF Professional 2
  4

  6

 40
0.0
 41
0.0
 42
0.0
 43
0.0
 44
0.0
 45
0.0
 46
0.0
 47
0.0
 48
0.0
 49
0.0
140
0.0
141
0.0
142
1.0
143
1.0
 70
 11952
 72
     0
 73
     1
 74
     0
  7

 75
     0
147
1.0
148
-62631.97140454995
149
10204.21805315389
100
AcDbLayout
  1
Model
 70
     1
 71
     0
 10
0.0
 20
0.0
 11
12.0
 21
9.0
 12
0.0
 22
0.0
 32
0.0
 14
0.0
 24
0.0
 34
0.0
 15
0.0
 25
0.0
 35
0.0
146
0.0
 13
0.0
 23
0.0
 33
0.0
 16
1.0
 26
0.0
 36
0.0
 17
0.0
 27
1.0
 37
0.0
 76
     0
330
2
  0
LAYOUT
  5
B8
102
{ACAD_REACTORS
330
B4
102
}
330
B4
100
AcDbPlotSettings
  1

  2
いきなりPDF Professional 2
  4

  6

 40
0.0
 41
0.0
 42
0.0
 43
0.0
 44
0.0
 45
0.0
 46
0.0
 47
0.0
 48
0.0
 49
0.0
140
0.0
141
0.0
142
1.0
143
1.0
 70
   688
 72
     0
 73
     0
 74
     5
  7

 75
    16
147
1.0
148
0.0
149
0.0
100
AcDbLayout
  1
ﾚｲｱｳﾄ1
 70
     1
 71
     1
 10
0.0
 20
0.0
 11
420.0
 21
297.0
 12
0.0
 22
0.0
 32
0.0
 14
1.000000000000000E+20
 24
1.000000000000000E+20
 34
1.000000000000000E+20
 15
-1.000000000000000E+20
 25
-1.000000000000000E+20
 35
-1.000000000000000E+20
146
0.0
 13
0.0
 23
0.0
 33
0.0
 16
1.0
 26
0.0
 36
0.0
 17
0.0
 27
1.0
 37
0.0
 76
     0
330
B5
  0
MLINESTYLE
  5
C9
102
{ACAD_REACTORS
330
C7
102
}
330
C7
100
AcDbMlineStyle
  2
STANDARD
 70
     0
  3

 62
   256
 51
90.0
 52
90.0
 71
     2
 49
0.5
 62
   256
  6
BYLAYER
 49
-0.5
 62
   256
  6
BYLAYER
  0
ACDBPLACEHOLDER
  5
5
102
{ACAD_REACTORS
330
6
102
}
330
6
  0
ENDSEC
  0
EOF
