  0
SECTION
  2
HEADER
  9
$ACADVER
  1
AC1015
  9
$ACADMAINTVER
 70
     6
  9
$DWGCODEPAGE
  3
ANSI_932
  9
$INSBASE
 10
2246.226033849817
 20
-498.7989361548161
 30
0.0
  9
$EXTMIN
 10
2462.32086929939
 20
-398.6342222555451
 30
-0.0015258207003583
  9
$EXTMAX
 10
2562.412031646139
 20
-298.5952751625163
 30
0.0000000349246037
  9
$LIMMIN
 10
0.0
 20
0.0
  9
$LIMMAX
 10
420.0
 20
297.0
  9
$ORTHOMODE
 70
     1
  9
$REGENMODE
 70
     1
  9
$FILLMODE
 70
     1
  9
$QTEXTMODE
 70
     0
  9
$MIRRTEXT
 70
     1
  9
$LTSCALE
 40
1.0
  9
$ATTMODE
 70
     1
  9
$TEXTSIZE
 40
2.5
  9
$TRACEWID
 40
1.0
  9
$TEXTSTYLE
  7
Standard
  9
$CLAYER
  8
0
  9
$CELTYPE
  6
ByLayer
  9
$CECOLOR
 62
   256
  9
$CELTSCALE
 40
1.0
  9
$DISPSILH
 70
     0
  9
$DIMSCALE
 40
1.0
  9
$DIMASZ
 40
2.5
  9
$DIMEXO
 40
0.625
  9
$DIMDLI
 40
3.75
  9
$DIMRND
 40
0.0
  9
$DIMDLE
 40
0.0
  9
$DIMEXE
 40
1.25
  9
$DIMTP
 40
0.0
  9
$DIMTM
 40
0.0
  9
$DIMTXT
 40
2.5
  9
$DIMCEN
 40
2.5
  9
$DIMTSZ
 40
0.0
  9
$DIMTOL
 70
     0
  9
$DIMLIM
 70
     0
  9
$DIMTIH
 70
     0
  9
$DIMTOH
 70
     0
  9
$DIMSE1
 70
     0
  9
$DIMSE2
 70
     0
  9
$DIMTAD
 70
     1
  9
$DIMZIN
 70
     8
  9
$DIMBLK
  1

  9
$DIMASO
 70
     1
  9
$DIMSHO
 70
     1
  9
$DIMPOST
  1

  9
$DIMAPOST
  1

  9
$DIMALT
 70
     0
  9
$DIMALTD
 70
     3
  9
$DIMALTF
 40
0.03937007874016
  9
$DIMLFAC
 40
1.0
  9
$DIMTOFL
 70
     1
  9
$DIMTVP
 40
0.0
  9
$DIMTIX
 70
     0
  9
$DIMSOXD
 70
     0
  9
$DIMSAH
 70
     0
  9
$DIMBLK1
  1

  9
$DIMBLK2
  1

  9
$DIMSTYLE
  2
ISO-25
  9
$DIMCLRD
 70
     0
  9
$DIMCLRE
 70
     0
  9
$DIMCLRT
 70
     0
  9
$DIMTFAC
 40
1.0
  9
$DIMGAP
 40
0.625
  9
$DIMJUST
 70
     0
  9
$DIMSD1
 70
     0
  9
$DIMSD2
 70
     0
  9
$DIMTOLJ
 70
     0
  9
$DIMTZIN
 70
     8
  9
$DIMALTZ
 70
     0
  9
$DIMALTTZ
 70
     0
  9
$DIMUPT
 70
     0
  9
$DIMDEC
 70
     2
  9
$DIMTDEC
 70
     2
  9
$DIMALTU
 70
     2
  9
$DIMALTTD
 70
     3
  9
$DIMTXSTY
  7
Standard
  9
$DIMAUNIT
 70
     0
  9
$DIMADEC
 70
     0
  9
$DIMALTRND
 40
0.0
  9
$DIMAZIN
 70
     0
  9
$DIMDSEP
 70
    46
  9
$DIMATFIT
 70
     3
  9
$DIMFRAC
 70
     0
  9
$DIMLDRBLK
  1

  9
$DIMLUNIT
 70
     2
  9
$DIMLWD
 70
    -2
  9
$DIMLWE
 70
    -2
  9
$DIMTMOVE
 70
     0
  9
$LUNITS
 70
     2
  9
$LUPREC
 70
     4
  9
$SKETCHINC
 40
1.0
  9
$FILLETRAD
 40
8.0
  9
$AUNITS
 70
     0
  9
$AUPREC
 70
     0
  9
$MENU
  1
.
  9
$ELEVATION
 40
0.0
  9
$PELEVATION
 40
0.0
  9
$THICKNESS
 40
0.0
  9
$LIMCHECK
 70
     0
  9
$CHAMFERA
 40
10.0
  9
$CHAMFERB
 40
10.0
  9
$CHAMFERC
 40
20.0
  9
$CHAMFERD
 40
0.0
  9
$SKPOLY
 70
     0
  9
$TDCREATE
 40
2454450.608673495
  9
$TDUCREATE
 40
2454450.233673495
  9
$TDUPDATE
 40
2455101.706157129
  9
$TDUUPDATE
 40
2455101.331157130
  9
$TDINDWG
 40
0.3428732176
  9
$TDUSRTIMER
 40
0.3428730440
  9
$USRTIMER
 70
     1
  9
$ANGBASE
 50
0.0
  9
$ANGDIR
 70
     0
  9
$PDMODE
 70
     0
  9
$PDSIZE
 40
0.0
  9
$PLINEWID
 40
0.0
  9
$SPLFRAME
 70
     0
  9
$SPLINETYPE
 70
     6
  9
$SPLINESEGS
 70
     8
  9
$HANDSEED
  5
D09
  9
$SURFTAB1
 70
     6
  9
$SURFTAB2
 70
     6
  9
$SURFTYPE
 70
     6
  9
$SURFU
 70
     6
  9
$SURFV
 70
     6
  9
$UCSBASE
  2

  9
$UCSNAME
  2

  9
$UCSORG
 10
0.0
 20
0.0
 30
0.0
  9
$UCSXDIR
 10
1.0
 20
0.0
 30
0.0
  9
$UCSYDIR
 10
0.0
 20
1.0
 30
0.0
  9
$UCSORTHOREF
  2

  9
$UCSORTHOVIEW
 70
     0
  9
$UCSORGTOP
 10
0.0
 20
0.0
 30
0.0
  9
$UCSORGBOTTOM
 10
0.0
 20
0.0
 30
0.0
  9
$UCSORGLEFT
 10
0.0
 20
0.0
 30
0.0
  9
$UCSORGRIGHT
 10
0.0
 20
0.0
 30
0.0
  9
$UCSORGFRONT
 10
0.0
 20
0.0
 30
0.0
  9
$UCSORGBACK
 10
0.0
 20
0.0
 30
0.0
  9
$PUCSBASE
  2

  9
$PUCSNAME
  2

  9
$PUCSORG
 10
0.0
 20
0.0
 30
0.0
  9
$PUCSXDIR
 10
1.0
 20
0.0
 30
0.0
  9
$PUCSYDIR
 10
0.0
 20
1.0
 30
0.0
  9
$PUCSORTHOREF
  2

  9
$PUCSORTHOVIEW
 70
     0
  9
$PUCSORGTOP
 10
0.0
 20
0.0
 30
0.0
  9
$PUCSORGBOTTOM
 10
0.0
 20
0.0
 30
0.0
  9
$PUCSORGLEFT
 10
0.0
 20
0.0
 30
0.0
  9
$PUCSORGRIGHT
 10
0.0
 20
0.0
 30
0.0
  9
$PUCSORGFRONT
 10
0.0
 20
0.0
 30
0.0
  9
$PUCSORGBACK
 10
0.0
 20
0.0
 30
0.0
  9
$USERI1
 70
     0
  9
$USERI2
 70
     0
  9
$USERI3
 70
     0
  9
$USERI4
 70
     0
  9
$USERI5
 70
     0
  9
$USERR1
 40
0.0
  9
$USERR2
 40
0.0
  9
$USERR3
 40
0.0
  9
$USERR4
 40
0.0
  9
$USERR5
 40
0.0
  9
$WORLDVIEW
 70
     1
  9
$SHADEDGE
 70
     3
  9
$SHADEDIF
 70
    70
  9
$TILEMODE
 70
     1
  9
$MAXACTVP
 70
    64
  9
$PINSBASE
 10
0.0
 20
0.0
 30
0.0
  9
$PLIMCHECK
 70
     0
  9
$PEXTMIN
 10
1.000000000000000E+20
 20
1.000000000000000E+20
 30
1.000000000000000E+20
  9
$PEXTMAX
 10
-1.000000000000000E+20
 20
-1.000000000000000E+20
 30
-1.000000000000000E+20
  9
$PLIMMIN
 10
0.0
 20
0.0
  9
$PLIMMAX
 10
420.0
 20
297.0
  9
$UNITMODE
 70
     0
  9
$VISRETAIN
 70
     1
  9
$PLINEGEN
 70
     0
  9
$PSLTSCALE
 70
     1
  9
$TREEDEPTH
 70
  3020
  9
$CMLSTYLE
  2
Standard
  9
$CMLJUST
 70
     0
  9
$CMLSCALE
 40
20.0
  9
$PROXYGRAPHICS
 70
     1
  9
$MEASUREMENT
 70
     1
  9
$CELWEIGHT
370
    -1
  9
$ENDCAPS
280
     0
  9
$JOINSTYLE
280
     0
  9
$LWDISPLAY
290
     0
  9
$INSUNITS
 70
     4
  9
$HYPERLINKBASE
  1

  9
$STYLESHEET
  1

  9
$XEDIT
290
     1
  9
$CEPSNTYPE
380
     0
  9
$PSTYLEMODE
290
     1
  9
$FINGERPRINTGUID
  2

  9
$VERSIONGUID
  2
{E3DCF224-9067-420F-9C6B-3F9550D5D1C5}
  9
$EXTNAMES
290
     1
  9
$PSVPSCALE
 40
0.0
  9
$OLESTARTUP
290
     0
  0
ENDSEC
  0
SECTION
  2
CLASSES
  0
CLASS
  1
ACDBDICTIONARYWDFLT
  2
AcDbDictionaryWithDefault
  3
AutoCAD 2000
 90
        0
280
     0
281
     0
  0
CLASS
  1
ACDBPLACEHOLDER
  2
AcDbPlaceHolder
  3
AutoCAD 2000
 90
        0
280
     0
281
     0
  0
CLASS
  1
LAYOUT
  2
AcDbLayout
  3
AutoCAD 2000
 90
        0
280
     0
281
     0
  0
CLASS
  1
DICTIONARYVAR
  2
AcDbDictionaryVar
  3
AutoCAD 2000
 90
    32768
280
     0
281
     0
  0
ENDSEC
  0
SECTION
  2
TABLES
  0
TABLE
  2
VPORT
  5
C1
330
0
100
AcDbSymbolTable
 70
     2
  0
VPORT
  5
D08
330
C1
100
AcDbSymbolTableRecord
100
AcDbViewportTableRecord
  2
*Active
 70
     0
 10
0.0
 20
0.0
 11
1.0
 21
1.0
 12
2529.473733882571
 22
-346.1690748385375
 13
0.0
 23
0.0
 14
10.0
 24
10.0
 15
10.0
 25
10.0
 16
0.0
 26
0.0
 36
1.0
 17
0.0
 27
0.0
 37
0.0
 40
131.6512175097196
 41
1.90204081632653
 42
50.0
 43
0.0
 44
0.0
 50
0.0
 51
0.0
 71
     0
 72
   100
 73
     1
 74
     3
 75
     0
 76
     0
 77
     0
 78
     0
281
     0
 65
     1
110
0.0
120
0.0
130
0.0
111
1.0
121
0.0
131
0.0
112
0.0
122
1.0
132
0.0
 79
     0
146
0.0
  0
ENDTAB
  0
TABLE
  2
LTYPE
  5
BC
330
0
100
AcDbSymbolTable
 70
     1
  0
LTYPE
  5
BD
330
BC
100
AcDbSymbolTableRecord
100
AcDbLinetypeTableRecord
  2
ByBlock
 70
     0
  3

 72
    65
 73
     0
 40
0.0
  0
LTYPE
  5
BE
330
BC
100
AcDbSymbolTableRecord
100
AcDbLinetypeTableRecord
  2
ByLayer
 70
     0
  3

 72
    65
 73
     0
 40
0.0
  0
LTYPE
  5
8
330
BC
100
AcDbSymbolTableRecord
100
AcDbLinetypeTableRecord
  2
Continuous
 70
     0
  3
Solid line
 72
    65
 73
     0
 40
0.0
  0
ENDTAB
  0
TABLE
  2
LAYER
  5
B9
330
0
100
AcDbSymbolTable
 70
     2
  0
LAYER
  5
4
330
B9
100
AcDbSymbolTableRecord
100
AcDbLayerTableRecord
  2
0
 70
     0
 62
     7
  6
Continuous
370
    -3
390
5
  0
LAYER
  5
14
330
B9
100
AcDbSymbolTableRecord
100
AcDbLayerTableRecord
  2
Defpoints
 70
     0
 62
     7
  6
Continuous
290
     0
370
    -3
390
5
  0
ENDTAB
  0
TABLE
  2
STYLE
  5
BA
330
0
100
AcDbSymbolTable
 70
     3
  0
STYLE
  5
9
330
BA
100
AcDbSymbolTableRecord
100
AcDbTextStyleTableRecord
  2
Standard
 70
     0
 40
0.0
 41
1.0
 50
0.0
 71
     0
 42
2.5
  3
txt
  4

  0
STYLE
  5
CD
330
BA
100
AcDbSymbolTableRecord
100
AcDbTextStyleTableRecord
  2
KANJI
 70
     0
 40
2.5
 41
1.0
 50
0.0
 71
     0
 42
2.5
  3
txt.shx
  4
BIGFONT
  0
STYLE
  5
CE
330
BA
100
AcDbSymbolTableRecord
100
AcDbTextStyleTableRecord
  2
STD
 70
     0
 40
2.5
 41
1.0
 50
0.0
 71
     0
 42
2.5
  3
txt
  4
bigfont
  0
ENDTAB
  0
TABLE
  2
VIEW
  5
BF
330
0
100
AcDbSymbolTable
 70
     0
  0
ENDTAB
  0
TABLE
  2
UCS
  5
C0
330
0
100
AcDbSymbolTable
 70
     0
  0
ENDTAB
  0
TABLE
  2
APPID
  5
C3
330
0
100
AcDbSymbolTable
 70
     1
  0
APPID
  5
19
330
C3
100
AcDbSymbolTableRecord
100
AcDbRegAppTableRecord
  2
ACAD
 70
     0
  0
ENDTAB
  0
TABLE
  2
DIMSTYLE
  5
C4
330
0
100
AcDbSymbolTable
 70
     2
100
AcDbDimStyleTable
 71
     1
340
4A
  0
DIMSTYLE
105
4A
102
{ACAD_REACTORS
330
7B4
330
7B5
330
7C0
330
7D7
330
7DD
330
7DE
330
7E0
330
7E3
330
7EE
102
}
330
C4
100
AcDbSymbolTableRecord
100
AcDbDimStyleTableRecord
  2
ISO-25
 70
     0
 41
2.5
 42
0.625
 43
3.75
 44
1.25
 73
     0
 74
     0
 77
     1
 78
     8
140
2.5
141
2.5
143
0.03937007874016
147
0.625
171
     3
172
     1
271
     2
272
     2
274
     3
283
     0
284
     8
340
9
  0
DIMSTYLE
105
A
330
C4
100
AcDbSymbolTableRecord
100
AcDbDimStyleTableRecord
  2
Standard
 70
     0
340
9
  0
ENDTAB
  0
TABLE
  2
BLOCK_RECORD
  5
1
330
0
100
AcDbSymbolTable
 70
     9
  0
BLOCK_RECORD
  5
2
330
1
100
AcDbSymbolTableRecord
100
AcDbBlockTableRecord
  2
*Model_Space
340
B3
  0
BLOCK_RECORD
  5
B5
330
1
100
AcDbSymbolTableRecord
100
AcDbBlockTableRecord
  2
*Paper_Space
340
B8
  0
BLOCK_RECORD
  5
7F3
330
1
100
AcDbSymbolTableRecord
100
AcDbBlockTableRecord
  2
*D0
340
0
  0
BLOCK_RECORD
  5
7FF
330
1
100
AcDbSymbolTableRecord
100
AcDbBlockTableRecord
  2
*D1
340
0
  0
BLOCK_RECORD
  5
80B
330
1
100
AcDbSymbolTableRecord
100
AcDbBlockTableRecord
  2
*D2
340
0
  0
BLOCK_RECORD
  5
817
330
1
100
AcDbSymbolTableRecord
100
AcDbBlockTableRecord
  2
*D3
340
0
  0
BLOCK_RECORD
  5
823
330
1
100
AcDbSymbolTableRecord
100
AcDbBlockTableRecord
  2
*D4
340
0
  0
BLOCK_RECORD
  5
830
330
1
100
AcDbSymbolTableRecord
100
AcDbBlockTableRecord
  2
*D5
340
0
  0
BLOCK_RECORD
  5
83B
330
1
100
AcDbSymbolTableRecord
100
AcDbBlockTableRecord
  2
*D6
340
0
  0
BLOCK_RECORD
  5
849
330
1
100
AcDbSymbolTableRecord
100
AcDbBlockTableRecord
  2
*D7
340
0
  0
BLOCK_RECORD
  5
854
330
1
100
AcDbSymbolTableRecord
100
AcDbBlockTableRecord
  2
*D8
340
0
  0
ENDTAB
  0
ENDSEC
  0
SECTION
  2
BLOCKS
  0
BLOCK
  5
B1
330
2
100
AcDbEntity
  8
0
100
AcDbBlockBegin
  2
*Model_Space
 70
     0
 10
0.0
 20
0.0
 30
0.0
  3
*Model_Space
  1

  0
ENDBLK
  5
B2
330
2
100
AcDbEntity
  8
0
100
AcDbBlockEnd
  0
BLOCK
  5
B6
330
B5
100
AcDbEntity
 67
     1
  8
0
100
AcDbBlockBegin
  2
*Paper_Space
 70
     0
 10
0.0
 20
0.0
 30
0.0
  3
*Paper_Space
  1

  0
ENDBLK
  5
B7
330
B5
100
AcDbEntity
 67
     1
  8
0
100
AcDbBlockEnd
  0
BLOCK
  5
7FD
330
7F3
100
AcDbEntity
  8
0
100
AcDbBlockBegin
  2
*D0
 70
     1
 10
0.0
 20
0.0
 30
0.0
  3
*D0
  1

  0
LINE
  5
CD7
330
7F3
100
AcDbEntity
  8
0
 62
     0
370
    -2
100
AcDbLine
 10
2511.553698552815
 20
-331.1708953197553
 30
0.0
 11
2501.429443721816
 21
-331.1708953197553
 31
0.0
  0
LINE
  5
CD8
330
7F3
100
AcDbEntity
  8
0
 62
     0
370
    -2
100
AcDbLine
 10
2511.553698552815
 20
-336.7708953197552
 30
0.0
 11
2501.429443721816
 21
-336.7708953197552
 31
0.0
  0
LINE
  5
CD9
330
7F3
100
AcDbEntity
  8
0
 62
     0
370
    -2
100
AcDbLine
 10
2502.679443721816
 20
-332.1708953197553
 30
0.0
 11
2502.679443721816
 21
-335.7708953197552
 31
0.0
  0
SOLID
  5
CDA
330
7F3
100
AcDbEntity
  8
0
 62
     0
100
AcDbTrace
 10
2502.51277705515
 20
-332.1708953197553
 30
0.0
 11
2502.846110388483
 21
-332.1708953197553
 31
0.0
 12
2502.679443721816
 22
-331.1708953197553
 32
0.0
 13
2502.679443721816
 23
-331.1708953197553
 33
0.0
  0
SOLID
  5
CDB
330
7F3
100
AcDbEntity
  8
0
 62
     0
100
AcDbTrace
 10
2502.51277705515
 20
-335.7708953197552
 30
0.0
 11
2502.846110388483
 21
-335.7708953197552
 31
0.0
 12
2502.679443721816
 22
-336.7708953197552
 32
0.0
 13
2502.679443721816
 23
-336.7708953197552
 33
0.0
  0
MTEXT
  5
CDC
330
7F3
100
AcDbEntity
  8
0
 62
     0
100
AcDbMText
 10
2501.054443721816
 20
-333.9708953197549
 30
0.0
 40
2.0
 41
0.0
 71
     5
 72
     1
  1
100
 11
0.0000000000000001
 21
1.0
 31
0.0
 73
     1
 44
1.0
  0
POINT
  5
CDD
330
7F3
100
AcDbEntity
  8
Defpoints
 62
     0
100
AcDbPoint
 10
2512.553698552815
 20
-331.1708953197553
 30
0.0
  0
POINT
  5
CDE
330
7F3
100
AcDbEntity
  8
Defpoints
 62
     0
100
AcDbPoint
 10
2512.553698552815
 20
-336.7708953197552
 30
0.0
  0
POINT
  5
CDF
330
7F3
100
AcDbEntity
  8
Defpoints
 62
     0
100
AcDbPoint
 10
2502.679443721816
 20
-336.7708953197552
 30
0.0
  0
ENDBLK
  5
7FE
330
7F3
100
AcDbEntity
  8
0
100
AcDbBlockEnd
  0
BLOCK
  5
809
330
7FF
100
AcDbEntity
  8
0
100
AcDbBlockBegin
  2
*D1
 70
     1
 10
0.0
 20
0.0
 30
0.0
  3
*D1
  1

  0
LINE
  5
CE0
330
7FF
100
AcDbEntity
  8
0
 62
     0
370
    -2
100
AcDbLine
 10
2510.741698552815
 20
-340.1868953197553
 30
0.0
 11
2501.429443721816
 21
-340.1868953197553
 31
0.0
  0
LINE
  5
CE1
330
7FF
100
AcDbEntity
  8
0
 62
     0
370
    -2
100
AcDbLine
 10
2512.179818542974
 20
-356.5988803781769
 30
0.0
 11
2501.429443721816
 21
-356.5988803781769
 31
0.0
  0
LINE
  5
CE2
330
7FF
100
AcDbEntity
  8
0
 62
     0
370
    -2
100
AcDbLine
 10
2502.679443721816
 20
-341.1868953197553
 30
0.0
 11
2502.679443721816
 21
-355.5988803781768
 31
0.0
  0
SOLID
  5
CE3
330
7FF
100
AcDbEntity
  8
0
 62
     0
100
AcDbTrace
 10
2502.51277705515
 20
-341.1868953197553
 30
0.0
 11
2502.846110388483
 21
-341.1868953197553
 31
0.0
 12
2502.679443721816
 22
-340.1868953197553
 32
0.0
 13
2502.679443721816
 23
-340.1868953197553
 33
0.0
  0
SOLID
  5
CE4
330
7FF
100
AcDbEntity
  8
0
 62
     0
100
AcDbTrace
 10
2502.51277705515
 20
-355.5988803781768
 30
0.0
 11
2502.846110388483
 21
-355.5988803781768
 31
0.0
 12
2502.679443721816
 22
-356.5988803781769
 32
0.0
 13
2502.679443721816
 23
-356.5988803781769
 33
0.0
  0
MTEXT
  5
CE5
330
7FF
100
AcDbEntity
  8
0
 62
     0
100
AcDbMText
 10
2501.054443721816
 20
-348.3928878489658
 30
0.0
 40
2.0
 41
0.0
 71
     5
 72
     1
  1
293.5
 11
0.0000000000000001
 21
1.0
 31
0.0
 73
     1
 44
1.0
  0
POINT
  5
CE6
330
7FF
100
AcDbEntity
  8
Defpoints
 62
     0
100
AcDbPoint
 10
2511.741698552815
 20
-340.1868953197553
 30
0.0
  0
POINT
  5
CE7
330
7FF
100
AcDbEntity
  8
Defpoints
 62
     0
100
AcDbPoint
 10
2513.179818542974
 20
-356.5988803781769
 30
0.0
  0
POINT
  5
CE8
330
7FF
100
AcDbEntity
  8
Defpoints
 62
     0
100
AcDbPoint
 10
2502.679443721816
 20
-356.5988803781769
 30
0.0
  0
ENDBLK
  5
80A
330
7FF
100
AcDbEntity
  8
0
100
AcDbBlockEnd
  0
BLOCK
  5
815
330
80B
100
AcDbEntity
  8
0
100
AcDbBlockBegin
  2
*D2
 70
     1
 10
0.0
 20
0.0
 30
0.0
  3
*D2
  1

  0
LINE
  5
CE9
330
80B
100
AcDbEntity
  8
0
 62
     0
370
    -2
100
AcDbLine
 10
2511.185445284042
 20
-336.7708953197552
 30
0.0
 11
2501.455556804152
 21
-336.7708953197552
 31
0.0
  0
LINE
  5
CEA
330
80B
100
AcDbEntity
  8
0
 62
     0
370
    -2
100
AcDbLine
 10
2510.741698552815
 20
-340.1868953197553
 30
0.0
 11
2501.455556804152
 21
-340.1868953197553
 31
0.0
  0
LINE
  5
CEB
330
80B
100
AcDbEntity
  8
0
 62
     0
370
    -2
100
AcDbLine
 10
2502.705556804151
 20
-337.7708953197552
 30
0.0
 11
2502.705556804151
 21
-339.1868953197552
 31
0.0
  0
SOLID
  5
CEC
330
80B
100
AcDbEntity
  8
0
 62
     0
100
AcDbTrace
 10
2502.538890137485
 20
-337.7708953197552
 30
0.0
 11
2502.872223470818
 21
-337.7708953197552
 31
0.0
 12
2502.705556804151
 22
-336.7708953197552
 32
0.0
 13
2502.705556804151
 23
-336.7708953197552
 33
0.0
  0
SOLID
  5
CED
330
80B
100
AcDbEntity
  8
0
 62
     0
100
AcDbTrace
 10
2502.538890137485
 20
-339.1868953197552
 30
0.0
 11
2502.872223470818
 21
-339.1868953197552
 31
0.0
 12
2502.705556804151
 22
-340.1868953197553
 32
0.0
 13
2502.705556804151
 23
-340.1868953197553
 33
0.0
  0
MTEXT
  5
CEE
330
80B
100
AcDbEntity
  8
0
 62
     0
100
AcDbMText
 10
2501.080556804152
 20
-338.4788953197548
 30
0.0
 40
2.0
 41
0.0
 71
     5
 72
     1
  1
61
 11
0.0000000000000001
 21
1.0
 31
0.0
 73
     1
 44
1.0
  0
POINT
  5
CEF
330
80B
100
AcDbEntity
  8
Defpoints
 62
     0
100
AcDbPoint
 10
2512.185445284042
 20
-336.7708953197552
 30
0.0
  0
POINT
  5
CF0
330
80B
100
AcDbEntity
  8
Defpoints
 62
     0
100
AcDbPoint
 10
2511.741698552815
 20
-340.1868953197553
 30
0.0
  0
POINT
  5
CF1
330
80B
100
AcDbEntity
  8
Defpoints
 62
     0
100
AcDbPoint
 10
2502.705556804151
 20
-340.1868953197553
 30
0.0
  0
ENDBLK
  5
816
330
80B
100
AcDbEntity
  8
0
100
AcDbBlockEnd
  0
BLOCK
  5
821
330
817
100
AcDbEntity
  8
0
100
AcDbBlockBegin
  2
*D3
 70
     1
 10
0.0
 20
0.0
 30
0.0
  3
*D3
  1

  0
LINE
  5
C88
330
817
100
AcDbEntity
  8
0
 62
     0
370
    -2
100
AcDbLine
 10
2509.417698552815
 20
-320.9601109954971
 30
0.0
 11
2509.417698552815
 21
-311.572567424601
 31
0.0
  0
LINE
  5
C89
330
817
100
AcDbEntity
  8
0
 62
     0
370
    -2
100
AcDbLine
 10
2517.257698552815
 20
-320.9601109954971
 30
0.0
 11
2517.257698552815
 21
-311.572567424601
 31
0.0
  0
LINE
  5
C8A
330
817
100
AcDbEntity
  8
0
 62
     0
370
    -2
100
AcDbLine
 10
2508.417698552815
 20
-312.572567424601
 30
0.0
 11
2507.417698552815
 21
-312.572567424601
 31
0.0
  0
LINE
  5
C8B
330
817
100
AcDbEntity
  8
0
 62
     0
370
    -2
100
AcDbLine
 10
2518.257698552815
 20
-312.572567424601
 30
0.0
 11
2519.257698552815
 21
-312.572567424601
 31
0.0
  0
LINE
  5
C8C
330
817
100
AcDbEntity
  8
0
 62
     0
370
    -2
100
AcDbLine
 10
2509.417698552815
 20
-312.572567424601
 30
0.0
 11
2517.257698552815
 21
-312.572567424601
 31
0.0
  0
SOLID
  5
C8D
330
817
100
AcDbEntity
  8
0
 62
     0
100
AcDbTrace
 10
2508.417698552815
 20
-312.4059007579343
 30
0.0
 11
2508.417698552815
 21
-312.7392340912677
 31
0.0
 12
2509.417698552815
 22
-312.572567424601
 32
0.0
 13
2509.417698552815
 23
-312.572567424601
 33
0.0
  0
SOLID
  5
C8E
330
817
100
AcDbEntity
  8
0
 62
     0
100
AcDbTrace
 10
2518.257698552815
 20
-312.4059007579343
 30
0.0
 11
2518.257698552815
 21
-312.7392340912677
 31
0.0
 12
2517.257698552815
 22
-312.572567424601
 32
0.0
 13
2517.257698552815
 23
-312.572567424601
 33
0.0
  0
MTEXT
  5
C8F
330
817
100
AcDbEntity
  8
0
 62
     0
100
AcDbMText
 10
2513.337698552815
 20
-310.572567424601
 30
0.0
 40
2.0
 41
0.0
 71
     5
 72
     1
  1
140
 73
     1
 44
1.0
  0
POINT
  5
C90
330
817
100
AcDbEntity
  8
Defpoints
 62
     0
100
AcDbPoint
 10
2509.417698552815
 20
-321.9601109954972
 30
0.0
  0
POINT
  5
C91
330
817
100
AcDbEntity
  8
Defpoints
 62
     0
100
AcDbPoint
 10
2517.257698552815
 20
-321.9601109954972
 30
0.0
  0
POINT
  5
C92
330
817
100
AcDbEntity
  8
Defpoints
 62
     0
100
AcDbPoint
 10
2517.257698552815
 20
-312.572567424601
 30
0.0
  0
ENDBLK
  5
822
330
817
100
AcDbEntity
  8
0
100
AcDbBlockEnd
  0
BLOCK
  5
82E
330
823
100
AcDbEntity
  8
0
100
AcDbBlockBegin
  2
*D4
 70
     1
 10
0.0
 20
0.0
 30
0.0
  3
*D4
  1

  0
LINE
  5
CCC
330
823
100
AcDbEntity
  8
0
 62
     0
370
    -2
100
AcDbLine
 10
2518.257698552815
 20
-328.8188953197553
 30
0.0
 11
2525.747932867971
 21
-328.8188953197553
 31
0.0
  0
LINE
  5
CCD
330
823
100
AcDbEntity
  8
0
 62
     0
370
    -2
100
AcDbLine
 10
2515.121698552815
 20
-331.1708953197552
 30
0.0
 11
2525.747932867971
 21
-331.1708953197552
 31
0.0
  0
LINE
  5
CCE
330
823
100
AcDbEntity
  8
0
 62
     0
370
    -2
100
AcDbLine
 10
2524.497932867971
 20
-327.8188953197552
 30
0.0
 11
2524.497932867971
 21
-326.8188953197553
 31
0.0
  0
LINE
  5
CCF
330
823
100
AcDbEntity
  8
0
 62
     0
370
    -2
100
AcDbLine
 10
2524.497932867971
 20
-332.1708953197552
 30
0.0
 11
2524.497932867971
 21
-337.7542286530886
 31
0.0
  0
LINE
  5
CD0
330
823
100
AcDbEntity
  8
0
 62
     0
370
    -2
100
AcDbLine
 10
2524.497932867971
 20
-328.8188953197553
 30
0.0
 11
2524.497932867971
 21
-331.1708953197552
 31
0.0
  0
SOLID
  5
CD1
330
823
100
AcDbEntity
  8
0
 62
     0
100
AcDbTrace
 10
2524.331266201304
 20
-327.8188953197552
 30
0.0
 11
2524.664599534637
 21
-327.8188953197552
 31
0.0
 12
2524.497932867971
 22
-328.8188953197553
 32
0.0
 13
2524.497932867971
 23
-328.8188953197553
 33
0.0
  0
SOLID
  5
CD2
330
823
100
AcDbEntity
  8
0
 62
     0
100
AcDbTrace
 10
2524.331266201304
 20
-332.1708953197552
 30
0.0
 11
2524.664599534637
 21
-332.1708953197552
 31
0.0
 12
2524.497932867971
 22
-331.1708953197552
 32
0.0
 13
2524.497932867971
 23
-331.1708953197552
 33
0.0
  0
MTEXT
  5
CD3
330
823
100
AcDbEntity
  8
0
 62
     0
100
AcDbMText
 10
2522.872932867971
 20
-335.4625619864215
 30
0.0
 40
2.0
 41
0.0
 71
     5
 72
     1
  1
42
 11
0.0000000000000001
 21
1.0
 31
0.0
 73
     1
 44
1.0
  0
POINT
  5
CD4
330
823
100
AcDbEntity
  8
Defpoints
 62
     0
100
AcDbPoint
 10
2517.257698552815
 20
-328.8188953197553
 30
0.0
  0
POINT
  5
CD5
330
823
100
AcDbEntity
  8
Defpoints
 62
     0
100
AcDbPoint
 10
2514.121698552815
 20
-331.1708953197552
 30
0.0
  0
POINT
  5
CD6
330
823
100
AcDbEntity
  8
Defpoints
 62
     0
100
AcDbPoint
 10
2524.497932867971
 20
-331.1708953197552
 30
0.0
  0
ENDBLK
  5
82F
330
823
100
AcDbEntity
  8
0
100
AcDbBlockEnd
  0
BLOCK
  5
839
330
830
100
AcDbEntity
  8
0
100
AcDbBlockBegin
  2
*D5
 70
     1
 10
0.0
 20
0.0
 30
0.0
  3
*D5
  1

  0
LINE
  5
C93
330
830
100
AcDbEntity
  8
0
 62
     0
370
    -2
100
AcDbLine
 10
2524.871655510567
 20
-312.8211830876741
 30
0.0
 11
2516.628963373857
 21
-318.9138447670563
 31
0.0
  0
LINE
  5
C94
330
830
100
AcDbEntity
  8
0
 62
     0
370
    -2
100
AcDbLine
 10
2514.750433731773
 20
-320.302377223938
 30
0.0
 11
2513.946268645265
 21
-320.8967832414387
 31
0.0
  0
MTEXT
  5
C95
330
830
100
AcDbEntity
  8
0
 62
     0
100
AcDbMText
 10
2521.054732954457
 20
-312.8445635303242
 30
0.0
 40
2.5
 41
0.0
 71
     5
 72
     1
  1
φ6
  7
STD
 11
0.8041650865083456
 21
0.5944060175006854
 31
0.0
 73
     1
 44
1.0
  0
LINE
  5
C96
330
830
100
AcDbEntity
  8
0
 62
     0
370
    -2
100
AcDbLine
 10
2515.554598818282
 20
-319.7079712064373
 30
0.0
 11
2515.824798287348
 21
-319.508250784557
 31
0.0
  0
SOLID
  5
C97
330
830
100
AcDbEntity
  8
0
 62
     0
100
AcDbTrace
 10
2514.65136606219
 20
-320.16834970952
 30
0.0
 11
2514.849501401357
 21
-320.4364047383562
 31
0.0
 12
2515.554598818282
 22
-319.7079712064373
 32
0.0
 13
2515.554598818282
 23
-319.7079712064373
 33
0.0
  0
SOLID
  5
C98
330
830
100
AcDbEntity
  8
0
 62
     0
100
AcDbTrace
 10
2516.529895704273
 20
-318.7798172526381
 30
0.0
 11
2516.72803104344
 21
-319.0478722814743
 31
0.0
 12
2515.824798287348
 22
-319.508250784557
 32
0.0
 13
2515.824798287348
 23
-319.508250784557
 33
0.0
  0
POINT
  5
C99
330
830
100
AcDbEntity
  8
Defpoints
 62
     0
100
AcDbPoint
 10
2515.824798287348
 20
-319.508250784557
 30
0.0
  0
POINT
  5
C9A
330
830
100
AcDbEntity
  8
Defpoints
 62
     0
100
AcDbPoint
 10
2515.554598818282
 20
-319.7079712064373
 30
0.0
  0
ENDBLK
  5
83A
330
830
100
AcDbEntity
  8
0
100
AcDbBlockEnd
  0
BLOCK
  5
847
330
83B
100
AcDbEntity
  8
0
100
AcDbBlockBegin
  2
*D6
 70
     1
 10
0.0
 20
0.0
 30
0.0
  3
*D6
  1

  0
LINE
  5
CB8
330
83B
100
AcDbEntity
  8
0
 62
     0
370
    -2
100
AcDbLine
 10
2512.693699247264
 20
-326.4518492714153
 30
0.0
 11
2512.693699247264
 21
-328.2657562001555
 31
0.0
  0
LINE
  5
CB9
330
83B
100
AcDbEntity
  8
0
 62
     0
370
    -2
100
AcDbLine
 10
2513.981697858366
 20
-326.4518492714153
 30
0.0
 11
2513.981697858366
 21
-328.2657562001555
 31
0.0
  0
LINE
  5
CBA
330
83B
100
AcDbEntity
  8
0
 62
     0
370
    -2
100
AcDbLine
 10
2511.693699247264
 20
-327.0157562001555
 30
0.0
 11
2510.693699247264
 21
-327.0157562001555
 31
0.0
  0
LINE
  5
CBB
330
83B
100
AcDbEntity
  8
0
 62
     0
370
    -2
100
AcDbLine
 10
2514.981697858366
 20
-327.0157562001555
 30
0.0
 11
2520.565031191699
 21
-327.0157562001555
 31
0.0
  0
LINE
  5
CBC
330
83B
100
AcDbEntity
  8
0
 62
     0
370
    -2
100
AcDbLine
 10
2512.693699247264
 20
-327.0157562001555
 30
0.0
 11
2513.981697858366
 21
-327.0157562001555
 31
0.0
  0
SOLID
  5
CBD
330
83B
100
AcDbEntity
  8
0
 62
     0
100
AcDbTrace
 10
2511.693699247264
 20
-326.8490895334888
 30
0.0
 11
2511.693699247264
 21
-327.1824228668222
 31
0.0
 12
2512.693699247264
 22
-327.0157562001555
 32
0.0
 13
2512.693699247264
 23
-327.0157562001555
 33
0.0
  0
SOLID
  5
CBE
330
83B
100
AcDbEntity
  8
0
 62
     0
100
AcDbTrace
 10
2514.981697858366
 20
-326.8490895334888
 30
0.0
 11
2514.981697858366
 21
-327.1824228668222
 31
0.0
 12
2513.981697858366
 22
-327.0157562001555
 32
0.0
 13
2513.981697858366
 23
-327.0157562001555
 33
0.0
  0
MTEXT
  5
CBF
330
83B
100
AcDbEntity
  8
0
 62
     0
100
AcDbMText
 10
2518.273364525033
 20
-325.3907562001555
 30
0.0
 40
2.0
 41
0.0
 71
     5
 72
     1
  1
23
 73
     1
 44
1.0
  0
POINT
  5
CC0
330
83B
100
AcDbEntity
  8
Defpoints
 62
     0
100
AcDbPoint
 10
2512.693699247264
 20
-325.8268492714153
 30
0.0
  0
POINT
  5
CC1
330
83B
100
AcDbEntity
  8
Defpoints
 62
     0
100
AcDbPoint
 10
2513.981697858366
 20
-325.8268492714153
 30
0.0
  0
POINT
  5
CC2
330
83B
100
AcDbEntity
  8
Defpoints
 62
     0
100
AcDbPoint
 10
2513.981697858366
 20
-327.0157562001555
 30
0.0
  0
ENDBLK
  5
848
330
83B
100
AcDbEntity
  8
0
100
AcDbBlockEnd
  0
BLOCK
  5
852
330
849
100
AcDbEntity
  8
0
100
AcDbBlockBegin
  2
*D7
 70
     1
 10
0.0
 20
0.0
 30
0.0
  3
*D7
  1

  0
LINE
  5
CC3
330
849
100
AcDbEntity
  8
0
 62
     0
370
    -2
100
AcDbLine
 10
2503.691751654947
 20
-331.0395085009845
 30
0.0
 11
2512.038647520045
 21
-323.1828629794479
 31
0.0
  0
LINE
  5
CC4
330
849
100
AcDbEntity
  8
0
 62
     0
370
    -2
100
AcDbLine
 10
2514.636749585588
 20
-320.7373590115469
 30
0.0
 11
2515.364917204855
 21
-320.0519599174042
 31
0.0
  0
MTEXT
  5
CC5
330
849
100
AcDbEntity
  8
0
 62
     0
100
AcDbMText
 10
2505.304996709949
 20
-326.4310686163503
 30
0.0
 40
2.5
 41
0.0
 71
     5
 72
     1
  1
φ28
  7
STD
 11
0.7281676192667003
 21
0.6853990941425776
 31
0.0
 73
     1
 44
1.0
  0
LINE
  5
CC6
330
849
100
AcDbEntity
  8
0
 62
     0
370
    -2
100
AcDbLine
 10
2513.908581966321
 20
-321.4227581056893
 30
0.0
 11
2512.766815139311
 21
-322.4974638853052
 31
0.0
  0
SOLID
  5
CC7
330
849
100
AcDbEntity
  8
0
 62
     0
100
AcDbTrace
 10
2514.522516403231
 20
-320.6159977416691
 30
0.0
 11
2514.750982767945
 21
-320.8587202814249
 31
0.0
 12
2513.908581966321
 22
-321.4227581056893
 32
0.0
 13
2513.908581966321
 23
-321.4227581056893
 33
0.0
  0
SOLID
  5
CC8
330
849
100
AcDbEntity
  8
0
 62
     0
100
AcDbTrace
 10
2511.924414337687
 20
-323.0615017095701
 30
0.0
 11
2512.152880702402
 21
-323.3042242493258
 31
0.0
 12
2512.766815139311
 22
-322.4974638853052
 32
0.0
 13
2512.766815139311
 23
-322.4974638853052
 33
0.0
  0
POINT
  5
CC9
330
849
100
AcDbEntity
  8
Defpoints
 62
     0
100
AcDbPoint
 10
2512.766815139311
 20
-322.4974638853052
 30
0.0
  0
POINT
  5
CCA
330
849
100
AcDbEntity
  8
Defpoints
 62
     0
100
AcDbPoint
 10
2513.908581966321
 20
-321.4227581056893
 30
0.0
  0
ENDBLK
  5
853
330
849
100
AcDbEntity
  8
0
100
AcDbBlockEnd
  0
BLOCK
  5
85E
330
854
100
AcDbEntity
  8
0
100
AcDbBlockBegin
  2
*D8
 70
     1
 10
0.0
 20
0.0
 30
0.0
  3
*D8
  1

  0
LINE
  5
C7D
330
854
100
AcDbEntity
  8
0
 62
     0
370
    -2
100
AcDbLine
 10
2510.985698552815
 20
-318.6081109954972
 30
0.0
 11
2510.985698552815
 21
-315.5954125040386
 31
0.0
  0
LINE
  5
C7E
330
854
100
AcDbEntity
  8
0
 62
     0
370
    -2
100
AcDbLine
 10
2515.689698552815
 20
-318.6081109954972
 30
0.0
 11
2515.689698552815
 21
-315.5954125040386
 31
0.0
  0
LINE
  5
C7F
330
854
100
AcDbEntity
  8
0
 62
     0
370
    -2
100
AcDbLine
 10
2509.985698552815
 20
-316.5954125040386
 30
0.0
 11
2508.985698552815
 21
-316.5954125040386
 31
0.0
  0
LINE
  5
C80
330
854
100
AcDbEntity
  8
0
 62
     0
370
    -2
100
AcDbLine
 10
2516.689698552815
 20
-316.5954125040386
 30
0.0
 11
2517.689698552815
 21
-316.5954125040386
 31
0.0
  0
LINE
  5
C81
330
854
100
AcDbEntity
  8
0
 62
     0
370
    -2
100
AcDbLine
 10
2510.985698552815
 20
-316.5954125040386
 30
0.0
 11
2515.689698552815
 21
-316.5954125040386
 31
0.0
  0
SOLID
  5
C82
330
854
100
AcDbEntity
  8
0
 62
     0
100
AcDbTrace
 10
2509.985698552815
 20
-316.428745837372
 30
0.0
 11
2509.985698552815
 21
-316.7620791707053
 31
0.0
 12
2510.985698552815
 22
-316.5954125040386
 32
0.0
 13
2510.985698552815
 23
-316.5954125040386
 33
0.0
  0
SOLID
  5
C83
330
854
100
AcDbEntity
  8
0
 62
     0
100
AcDbTrace
 10
2516.689698552815
 20
-316.428745837372
 30
0.0
 11
2516.689698552815
 21
-316.7620791707053
 31
0.0
 12
2515.689698552815
 22
-316.5954125040386
 32
0.0
 13
2515.689698552815
 23
-316.5954125040386
 33
0.0
  0
MTEXT
  5
C84
330
854
100
AcDbEntity
  8
0
 62
     0
100
AcDbMText
 10
2513.337698552815
 20
-314.9704125040386
 30
0.0
 40
2.0
 41
0.0
 71
     5
 72
     1
  1
84
 73
     1
 44
1.0
  0
POINT
  5
C85
330
854
100
AcDbEntity
  8
Defpoints
 62
     0
100
AcDbPoint
 10
2510.985698552815
 20
-319.6081109954972
 30
0.0
  0
POINT
  5
C86
330
854
100
AcDbEntity
  8
Defpoints
 62
     0
100
AcDbPoint
 10
2515.689698552815
 20
-319.6081109954972
 30
0.0
  0
POINT
  5
C87
330
854
100
AcDbEntity
  8
Defpoints
 62
     0
100
AcDbPoint
 10
2515.689698552815
 20
-316.5954125040386
 30
0.0
  0
ENDBLK
  5
85F
330
854
100
AcDbEntity
  8
0
100
AcDbBlockEnd
  0
ENDSEC
  0
SECTION
  2
ENTITIES
  0
TEXT
  5
F8
330
2
100
AcDbEntity
  8
0
100
AcDbText
 10
2536.354222506532
 20
-304.6495265160369
 30
0.0
 40
4.0
  1
RHT-12
 41
0.8
  7
STD
100
AcDbText
  0
TEXT
  5
F9
330
2
100
AcDbEntity
  8
0
100
AcDbText
 10
2476.784633831185
 20
-302.4142281059104
 30
0.0
 40
3.0
  1
天井吊り型ドームハウジング
  7
STD
100
AcDbText
  0
LINE
  5
FA
330
2
100
AcDbEntity
  8
0
100
AcDbLine
 10
2562.333829457327
 20
-298.6129954511873
 30
0.0
 11
2562.333829457327
 21
-306.6129954511873
 31
0.0
  0
LINE
  5
FB
330
2
100
AcDbEntity
  8
0
100
AcDbLine
 10
2462.333829457327
 20
-306.6129954511873
 30
0.0
 11
2462.333829457327
 21
-298.6129954511873
 31
0.0
  0
LINE
  5
FC
330
2
100
AcDbEntity
  8
0
100
AcDbLine
 10
2559.333829457328
 20
-394.495426085864
 30
0.0
 11
2559.333829457328
 21
-362.4954260858639
 31
0.0
  0
LINE
  5
FD
330
2
100
AcDbEntity
  8
0
100
AcDbLine
 10
2465.333829457327
 20
-362.4954260858639
 30
0.0
 11
2465.333829457327
 21
-394.495426085864
 31
0.0
  0
LINE
  5
FE
330
2
100
AcDbEntity
  8
0
100
AcDbLine
 10
2465.333829457327
 20
-390.4954260858639
 30
0.0
 11
2559.333829457328
 21
-390.4954260858639
 31
0.0
  0
LINE
  5
FF
330
2
100
AcDbEntity
  8
0
100
AcDbLine
 10
2465.333829457327
 20
-386.495426085864
 30
0.0
 11
2559.333829457328
 21
-386.495426085864
 31
0.0
  0
LINE
  5
100
330
2
100
AcDbEntity
  8
0
100
AcDbLine
 10
2465.333829457327
 20
-382.4954260858639
 30
0.0
 11
2559.333829457328
 21
-382.4954260858639
 31
0.0
  0
LINE
  5
101
330
2
100
AcDbEntity
  8
0
100
AcDbLine
 10
2465.333829457327
 20
-378.4954260858639
 30
0.0
 11
2559.333829457328
 21
-378.4954260858639
 31
0.0
  0
LINE
  5
102
330
2
100
AcDbEntity
  8
0
100
AcDbLine
 10
2465.333829457327
 20
-374.4954260858639
 30
0.0
 11
2559.333829457328
 21
-374.4954260858639
 31
0.0
  0
LINE
  5
103
330
2
100
AcDbEntity
  8
0
100
AcDbLine
 10
2465.333829457327
 20
-370.4954260858639
 30
0.0
 11
2559.333829457328
 21
-370.4954260858639
 31
0.0
  0
LINE
  5
104
330
2
100
AcDbEntity
  8
0
100
AcDbLine
 10
2559.333829457328
 20
-362.4954260858639
 30
0.0
 11
2465.333829457327
 21
-362.4954260858639
 31
0.0
  0
LINE
  5
105
330
2
100
AcDbEntity
  8
0
100
AcDbLine
 10
2465.333829457327
 20
-366.4954260858639
 30
0.0
 11
2559.333829457328
 21
-366.4954260858639
 31
0.0
  0
LINE
  5
106
330
2
100
AcDbEntity
  8
0
100
AcDbLine
 10
2496.333829457327
 20
-362.4954260858639
 30
0.0
 11
2496.333829457327
 21
-394.495426085864
 31
0.0
  0
TEXT
  5
107
330
2
100
AcDbEntity
  8
0
100
AcDbText
 10
2467.680303457328
 20
-365.8065119095829
 30
0.0
 40
2.5
  1
材質
  7
STD
100
AcDbText
  0
TEXT
  5
109
330
2
100
AcDbEntity
  8
0
100
AcDbText
 10
2467.680303457328
 20
-373.9194334515027
 30
0.0
 40
2.5
  1
防滴構造
  7
STD
100
AcDbText
  0
TEXT
  5
10A
330
2
100
AcDbEntity
  8
0
100
AcDbText
 10
2467.680303457328
 20
-369.8454460001208
 30
0.0
 40
2.5
  1
使用温度
  7
STD
100
AcDbText
  0
TEXT
  5
10C
330
2
100
AcDbEntity
  8
0
100
AcDbText
 10
2467.515522583781
 20
-393.5704415233486
 30
0.0
 40
2.5
  1
対応カメラ
  7
STD
100
AcDbText
  0
TEXT
  5
10D
330
2
100
AcDbEntity
  8
0
100
AcDbText
 10
2498.712779553773
 20
-393.1977291522936
 30
0.0
 40
1.7
  1
BB-HCM511、BB-HCM580、581、DG-NS202A 
  7
STD
100
AcDbText
  0
TEXT
  5
10F
330
2
100
AcDbEntity
  8
0
100
AcDbText
 10
2498.454063888392
 20
-369.8454460001208
 30
0.0
 40
2.5
  1
-10℃～45℃
  7
STD
100
AcDbText
  0
TEXT
  5
110
330
2
100
AcDbEntity
  8
0
100
AcDbText
 10
2498.56836373577
 20
-373.7205684515028
 30
0.0
 40
2.5
  1
IP66相当
  7
STD
100
AcDbText
  0
TEXT
  5
112
330
2
100
AcDbEntity
  8
0
100
AcDbText
 10
2498.721882457328
 20
-365.694718909583
 30
0.0
 40
2.5
  1
アルミニウム、AES樹脂
 41
0.9
  7
STD
100
AcDbText
  0
LINE
  5
115
330
2
100
AcDbEntity
  8
0
100
AcDbLine
 10
2562.333829457327
 20
-398.6129954511873
 30
0.0
 11
2462.333829457327
 21
-398.6129954511873
 31
0.0
  0
LINE
  5
116
330
2
100
AcDbEntity
  8
0
100
AcDbLine
 10
2462.333829457327
 20
-398.6129954511873
 30
0.0
 11
2462.333829457327
 21
-306.6129954511873
 31
0.0
  0
LINE
  5
117
330
2
100
AcDbEntity
  8
0
100
AcDbLine
 10
2474.333829457327
 20
-298.6129954511873
 30
0.0
 11
2474.333829457327
 21
-306.6129954511873
 31
0.0
  0
LINE
  5
118
330
2
100
AcDbEntity
  8
0
100
AcDbLine
 10
2462.333829457327
 20
-298.6129954511873
 30
0.0
 11
2562.333829457327
 21
-298.6129954511873
 31
0.0
  0
LINE
  5
119
330
2
100
AcDbEntity
  8
0
100
AcDbLine
 10
2525.842457387693
 20
-298.6129954511873
 30
0.0
 11
2525.842457387693
 21
-306.6129954511873
 31
0.0
  0
LINE
  5
11A
330
2
100
AcDbEntity
  8
0
100
AcDbLine
 10
2462.333829457327
 20
-306.6129954511873
 30
0.0
 11
2562.333829457327
 21
-306.6129954511873
 31
0.0
  0
LINE
  5
11B
330
2
100
AcDbEntity
  8
0
100
AcDbLine
 10
2562.333829457327
 20
-306.6129954511873
 30
0.0
 11
2562.333829457327
 21
-398.6129954511873
 31
0.0
  0
TEXT
  5
681
330
2
100
AcDbEntity
  8
0
100
AcDbText
 10
2467.526723596325
 20
-378.0529957228941
 30
0.0
 40
2.5
  1
ファンヒーター
  7
STD
100
AcDbText
  0
TEXT
  5
68C
330
2
100
AcDbEntity
  8
0
100
AcDbText
 10
2498.573751485357
 20
-377.8418656580338
 30
0.0
 40
2.5
  1
あり
  7
STD
100
AcDbText
  0
TEXT
  5
699
330
2
100
AcDbEntity
  8
0
100
AcDbText
 10
2467.674977712974
 20
-385.7207711676606
 30
0.0
 40
2.5
  1
質量
  7
STD
100
AcDbText
  0
TEXT
  5
6A0
330
2
100
AcDbEntity
  8
0
100
AcDbText
 10
2498.507038308449
 20
-385.6854998584811
 30
0.0
 40
2.5
  1
本体3.2kg＋ブラケット0.7kg
  7
STD
100
AcDbText
  0
LINE
  5
6DC
330
2
100
AcDbEntity
  8
0
100
AcDbLine
 10
2465.333829457327
 20
-394.495426085864
 30
0.0
 11
2559.333829457328
 21
-394.495426085864
 31
0.0
  0
TEXT
  5
6E9
330
2
100
AcDbEntity
  8
0
100
AcDbText
 10
2482.520765167934
 20
-305.8146918615745
 30
0.0
 40
3.0
  1
(ファンヒーター付)
  7
STD
100
AcDbText
  0
TEXT
  5
6F3
330
2
100
AcDbEntity
  8
0
100
AcDbText
 10
2467.689346539634
 20
-389.7292419994338
 30
0.0
 40
2.5
  1
塗装色
  7
STD
100
AcDbText
  0
TEXT
  5
6FB
330
2
100
AcDbEntity
  8
0
100
AcDbText
 10
2498.655630321211
 20
-389.8060195145562
 30
0.0
 40
2.5
  1
アイボリー
  7
STD
100
AcDbText
  0
LINE
  5
7B2
330
2
100
AcDbEntity
  8
0
100
AcDbLine
 10
2514.121698552815
 20
-331.1772632926269
 30
0.0
 11
2514.121698552815
 21
-336.7708953197552
 31
0.0
  0
LINE
  5
7B3
330
2
100
AcDbEntity
  8
0
100
AcDbLine
 10
2512.553698552815
 20
-336.7708953197552
 30
0.0
 11
2512.553698552815
 21
-331.1708953197552
 31
0.0
  0
DIMENSION
  5
7B4
330
2
100
AcDbEntity
  8
0
100
AcDbDimension
  2
*D0
 10
2502.679443721816
 20
-336.7708953197552
 30
0.0
 11
2501.054443721816
 21
-333.9708953197549
 31
0.0
 70
    32
  1
100
 71
     5
 42
5.599999999999909
  3
ISO-25
100
AcDbAlignedDimension
 13
2512.553698552815
 23
-331.1708953197553
 33
0.0
 14
2512.553698552815
 24
-336.7708953197552
 34
0.0
 50
90.0
100
AcDbRotatedDimension
1001
ACAD
1000
DSTYLE
1002
{
1070
    42
1040
1.0
1070
    41
1040
1.0
1070
   140
1040
2.0
1002
}
  0
DIMENSION
  5
7B5
330
2
100
AcDbEntity
  8
0
100
AcDbDimension
  2
*D1
 10
2502.679443721816
 20
-356.5988803781769
 30
0.0
 11
2502.679443721816
 21
-348.3928878489658
 31
0.0
 70
   160
  1
293.5
 71
     5
 42
16.41198505842157
  3
ISO-25
100
AcDbAlignedDimension
 13
2511.741698552815
 23
-340.1868953197553
 33
0.0
 14
2513.179818542974
 24
-356.5988803781769
 34
0.0
 50
90.0
100
AcDbRotatedDimension
1001
ACAD
1000
DSTYLE
1002
{
1070
   140
1040
2.0
1070
    42
1040
1.0
1070
    41
1040
1.0
1002
}
  0
LWPOLYLINE
  5
7B6
330
2
100
AcDbEntity
  8
0
100
AcDbPolyline
 90
       94
 70
     0
 43
0.0
 10
2508.314422676912
 20
-351.9802642351125
 10
2508.348961659953
 20
-352.3009951130473
 10
2508.348961659953
 20
-352.3009951130473
 10
2508.408144173979
 20
-352.6118305389277
 10
2508.408144173979
 20
-352.6118305389277
 10
2508.482192998313
 20
-352.9227225102487
 10
2508.482192998313
 20
-352.9227225102487
 10
2508.580885353632
 20
-353.2286436233166
 10
2508.580885353632
 20
-353.2286436233166
 10
2508.694387473819
 20
-353.5247206892761
 10
2508.694387473819
 20
-353.5247206892761
 10
2508.827618812179
 20
-353.8158834424232
 10
2508.827618812179
 20
-353.8158834424232
 10
2508.980579368714
 20
-354.0921850257577
 10
2508.980579368714
 20
-354.0921850257577
 10
2509.14834454962
 20
-354.3635671557854
 10
2509.14834454962
 20
-354.3635671557854
 10
2509.335844089194
 20
-354.6251103791989
 10
2509.335844089194
 20
-354.6251103791989
 10
2509.538153393635
 20
-354.8718438377457
 10
2509.538153393635
 20
-354.8718438377457
 10
2509.755318727394
 20
-355.1037675314259
 10
2509.755318727394
 20
-355.1037675314259
 10
2509.982271562822
 20
-355.3258009135463
 10
2509.982271562822
 20
-355.3258009135463
 10
2510.229005021368
 20
-355.5281102179875
 10
2510.229005021368
 20
-355.5281102179875
 10
2510.485577386529
 20
-355.7156560220132
 10
2510.485577386529
 20
-355.7156560220132
 10
2510.756959516557
 20
-355.8883457967209
 10
2510.756959516557
 20
-355.8883457967209
 10
2511.033261099891
 20
-356.0413063532549
 10
2511.033261099891
 20
-356.0413063532549
 10
2511.324423853039
 20
-356.1794571449222
 10
2511.324423853039
 20
-356.1794571449222
 10
2511.620500918998
 20
-356.2978787184158
 10
2511.620500918998
 20
-356.2978787184158
 10
2511.921502578759
 20
-356.3966224786814
 10
2511.921502578759
 20
-356.3966224786814
 10
2512.23239455008
 20
-356.4755393513763
 10
2512.23239455008
 20
-356.4755393513763
 10
2512.543281380906
 20
-356.5347732703486
 10
2512.543281380906
 20
-356.5347732703486
 10
2512.859041400588
 20
-356.5792025649488
 10
2512.859041400588
 20
-356.5792025649488
 10
2513.179818542974
 20
-356.5988803781769
 10
2513.179818542974
 20
-356.5988803781769
 10
2513.495629967602
 20
-356.5988803781769
 10
2513.495629967602
 20
-356.5988803781769
 10
2513.816355705042
 20
-356.5792025649488
 10
2513.816355705042
 20
-356.5792025649488
 10
2514.13216712967
 20
-356.5347732703486
 10
2514.13216712967
 20
-356.5347732703486
 10
2514.443053960496
 20
-356.4755393513763
 10
2514.443053960496
 20
-356.4755393513763
 10
2514.753894526871
 20
-356.3966224786814
 10
2514.753894526871
 20
-356.3966224786814
 10
2515.054896186632
 20
-356.2978787184158
 10
2515.054896186632
 20
-356.2978787184158
 10
2515.350978393086
 20
-356.1794571449222
 10
2515.350978393086
 20
-356.1794571449222
 10
2515.642084600793
 20
-356.0413063532549
 10
2515.642084600793
 20
-356.0413063532549
 10
2515.918437589073
 20
-355.8883457967209
 10
2515.918437589073
 20
-355.8883457967209
 10
2516.189819719101
 20
-355.7156560220132
 10
2516.189819719101
 20
-355.7156560220132
 10
2516.446443489207
 20
-355.5281102179875
 10
2516.446443489207
 20
-355.5281102179875
 10
2516.688206089502
 20
-355.3258009135463
 10
2516.688206089502
 20
-355.3258009135463
 10
2516.920129783182
 20
-355.1037675314259
 10
2516.920129783182
 20
-355.1037675314259
 10
2517.13724885249
 20
-354.8718438377457
 10
2517.13724885249
 20
-354.8718438377457
 10
2517.339553016436
 20
-354.6251103791989
 10
2517.339553016436
 20
-354.6251103791989
 10
2517.527052556011
 20
-354.3635671557854
 10
2517.527052556011
 20
-354.3635671557854
 10
2517.694822877412
 20
-354.0921850257577
 10
2517.694822877412
 20
-354.0921850257577
 10
2517.847829698397
 20
-353.8158834424232
 10
2517.847829698397
 20
-353.8158834424232
 10
2517.981009631811
 20
-353.5247206892761
 10
2517.981009631811
 20
-353.5247206892761
 10
2518.094511751998
 20
-353.2286436233166
 10
2518.094511751998
 20
-353.2286436233166
 10
2518.193209247812
 20
-352.9227225102487
 10
2518.193209247812
 20
-352.9227225102487
 10
2518.267252931651
 20
-352.6118305389277
 10
2518.267252931651
 20
-352.6118305389277
 10
2518.326440586172
 20
-352.3009951130473
 10
2518.326440586172
 20
-352.3009951130473
 10
2518.360974428718
 20
-351.9802642351125
  0
LWPOLYLINE
  5
7B7
330
2
100
AcDbEntity
  8
0
100
AcDbPolyline
 90
        2
 70
     0
 43
0.0
 10
2518.933358218507
 20
-342.0866678993453
 10
2515.464480513273
 20
-340.4681163563968
  0
LWPOLYLINE
  5
7B8
330
2
100
AcDbEntity
  8
0
100
AcDbPolyline
 90
       24
 70
     0
 43
0.0
 10
2507.741987482177
 20
-342.0866678993453
 10
2507.598917237203
 20
-342.1606653187332
 10
2507.598917237203
 20
-342.1606653187332
 10
2507.460766445536
 20
-342.254438220746
 10
2507.460766445536
 20
-342.254438220746
 10
2507.337379154284
 20
-342.3629694826798
 10
2507.337379154284
 20
-342.3629694826798
 10
2507.228842751856
 20
-342.4863619144261
 10
2507.228842751856
 20
-342.4863619144261
 10
2507.130150396536
 20
-342.6195469883352
 10
2507.130150396536
 20
-342.6195469883352
 10
2507.051187259389
 20
-342.7626634977608
 10
2507.051187259389
 20
-342.7626634977608
 10
2506.987028746616
 20
-342.9156240542947
 10
2506.987028746616
 20
-342.9156240542947
 10
2506.937685139203
 20
-343.0735040641358
 10
2506.937685139203
 20
-343.0735040641358
 10
2506.913036467722
 20
-343.2363549322295
 10
2506.913036467722
 20
-343.2363549322295
 10
2506.054409378094
 20
-350.5541779494968
 10
2506.054409378094
 20
-350.5541779494968
 10
2519.954831035735
 20
-350.5541779494968
 10
2519.954831035735
 20
-350.5541779494968
 10
2520.620987727537
 20
-350.5541779494968
  0
LWPOLYLINE
  5
7B9
330
2
100
AcDbEntity
  8
0
100
AcDbPolyline
 90
        4
 70
     0
 43
0.0
 10
2506.908065609469
 20
-351.6200286563791
 10
2507.493197825801
 20
-351.9802642351125
 10
2507.493197825801
 20
-351.9802642351125
 10
2519.142339884905
 20
-351.9802642351125
  0
LWPOLYLINE
  5
7BA
330
2
100
AcDbEntity
  8
0
100
AcDbPolyline
 90
        4
 70
     0
 43
0.0
 10
2519.979479707215
 20
-351.4769584114048
 10
2519.979479707215
 20
-351.2795737007651
 10
2519.979479707215
 20
-351.2795737007651
 10
2506.695917398414
 20
-351.2795737007651
  0
LWPOLYLINE
  5
7BB
330
2
100
AcDbEntity
  8
0
100
AcDbPolyline
 90
        6
 70
     0
 43
0.0
 10
2506.720566069895
 20
-350.5541779494968
 10
2506.695917398414
 20
-351.2795737007651
 10
2506.695917398414
 20
-351.2795737007651
 10
2506.779805129362
 20
-351.2795737007651
 10
2506.779805129362
 20
-351.2795737007651
 10
2506.695917398414
 20
-351.2795737007651
  0
LWPOLYLINE
  5
7BC
330
2
100
AcDbEntity
  8
0
100
AcDbPolyline
 90
        8
 70
     0
 43
0.0
 10
2506.908065609469
 20
-351.6200286563791
 10
2506.878497484682
 20
-351.5657604551648
 10
2506.878497484682
 20
-351.5657604551648
 10
2506.834068190082
 20
-351.5262557543662
 10
2506.834068190082
 20
-351.5262557543662
 10
2506.779805129362
 20
-351.5016070828856
 10
2506.779805129362
 20
-351.5016070828856
 10
2506.720566069895
 20
-351.4917167713258
  0
LWPOLYLINE
  5
7BD
330
2
100
AcDbEntity
  8
0
100
AcDbPolyline
 90
        2
 70
     0
 43
0.0
 10
2506.695917398414
 20
-351.2795737007651
 10
2506.779805129362
 20
-351.2795737007651
  0
LWPOLYLINE
  5
7BE
330
2
100
AcDbEntity
  8
0
100
AcDbPolyline
 90
        2
 70
     0
 43
0.0
 10
2506.695917398414
 20
-351.4769584114048
 10
2506.720566069895
 20
-351.4917167713258
  0
LWPOLYLINE
  5
7BF
330
2
100
AcDbEntity
  8
0
100
AcDbPolyline
 90
        4
 70
     0
 43
0.0
 10
2506.695917398414
 20
-351.4769584114048
 10
2506.695917398414
 20
-351.2795737007651
 10
2506.695917398414
 20
-351.2795737007651
 10
2506.80937325415
 20
-351.2795737007651
  0
DIMENSION
  5
7C0
330
2
100
AcDbEntity
  8
0
100
AcDbDimension
  2
*D2
 10
2502.705556804151
 20
-340.1868953197553
 30
0.0
 11
2502.705556804151
 21
-338.4788953197548
 31
0.0
 70
   160
  1
61
 71
     5
 42
3.416000000000053
  3
ISO-25
100
AcDbAlignedDimension
 13
2512.185445284042
 23
-336.7708953197552
 33
0.0
 14
2511.741698552815
 24
-340.1868953197553
 34
0.0
 50
90.0
100
AcDbRotatedDimension
1001
ACAD
1000
DSTYLE
1002
{
1070
    42
1040
1.0
1070
    41
1040
1.0
1070
   140
1040
2.0
1002
}
  0
LINE
  5
7C1
330
2
100
AcDbEntity
  8
0
100
AcDbLine
 10
2514.933698552815
 20
-340.1868953197553
 30
0.0
 11
2514.933698552815
 21
-337.0508953197552
 31
0.0
  0
LINE
  5
7C2
330
2
100
AcDbEntity
  8
0
100
AcDbLine
 10
2511.741698552815
 20
-337.0508953197552
 30
0.0
 11
2511.741698552815
 21
-340.1868953197553
 31
0.0
  0
LWPOLYLINE
  5
7C3
330
2
100
AcDbEntity
  8
0
100
AcDbPolyline
 90
        2
 70
     0
 43
0.0
 10
2507.741987482177
 20
-342.0866678993453
 10
2511.161572984945
 20
-340.4878969795164
  0
LINE
  5
7C4
330
2
100
AcDbEntity
  8
0
100
AcDbLine
 10
2513.337698552815
 20
-340.1868953197553
 30
0.0
 11
2511.741698552815
 21
-340.1868953197553
 31
0.0
  0
LWPOLYLINE
  5
7C5
330
2
100
AcDbEntity
  8
0
100
AcDbPolyline
 90
        2
 70
     0
 43
0.0
 10
2511.255345886958
 20
-340.4681163563968
 10
2514.694660607899
 20
-340.4681163563968
  0
LWPOLYLINE
  5
7C6
330
2
100
AcDbEntity
  8
0
100
AcDbPolyline
 90
        4
 70
     0
 43
0.0
 10
2511.980741638226
 20
-340.4681163563968
 10
2511.980741638226
 20
-340.1868953197553
 10
2511.980741638226
 20
-340.1868953197553
 10
2514.694660607899
 20
-340.1868953197553
  0
LINE
  5
7C7
330
2
100
AcDbEntity
  8
0
100
AcDbLine
 10
2511.741698552815
 20
-340.1868953197553
 30
0.0
 11
2514.933698552815
 21
-340.1868953197553
 31
0.0
  0
LWPOLYLINE
  5
7C8
330
2
100
AcDbEntity
  8
0
100
AcDbPolyline
 90
        4
 70
     0
 43
0.0
 10
2511.255345886958
 20
-340.4681163563968
 10
2511.210921732851
 20
-340.4730872146495
 10
2511.210921732851
 20
-340.4730872146495
 10
2511.161572984945
 20
-340.4878969795164
  0
LINE
  5
7C9
330
2
100
AcDbEntity
  8
0
100
AcDbLine
 10
2514.933698552815
 20
-340.1868953197553
 30
0.0
 11
2513.337701123063
 21
-340.1868953197553
 31
0.0
  0
LWPOLYLINE
  5
7CA
330
2
100
AcDbEntity
  8
0
100
AcDbPolyline
 90
        2
 70
     0
 43
0.0
 10
2515.464480513273
 20
-340.4681163563968
 10
2514.694660607899
 20
-340.4681163563968
  0
LINE
  5
7CB
330
2
100
AcDbEntity
  8
0
100
AcDbLine
 10
2514.694660607899
 20
-340.1868953197553
 30
0.0
 11
2514.694660607899
 21
-340.4681163563969
 31
0.0
  0
LINE
  5
7CC
330
2
100
AcDbEntity
  8
0
100
AcDbLine
 10
2512.553698552815
 20
-336.2520907989265
 30
0.0
 11
2512.553698552815
 21
-336.7708953197552
 31
0.0
  0
LINE
  5
7CD
330
2
100
AcDbEntity
  8
0
100
AcDbLine
 10
2512.185445284042
 20
-336.7708953197552
 30
0.0
 11
2514.489951821588
 21
-336.7708953197552
 31
0.0
  0
LINE
  5
7CE
330
2
100
AcDbEntity
  8
0
100
AcDbLine
 10
2514.933698552815
 20
-337.0508953197552
 30
0.0
 11
2511.741698552815
 21
-337.0508953197552
 31
0.0
  0
LINE
  5
7CF
330
2
100
AcDbEntity
  8
0
100
AcDbLine
 10
2512.185445284042
 20
-336.7708953197552
 30
0.0
 11
2511.741698552815
 21
-337.0508953197552
 31
0.0
  0
LINE
  5
7D0
330
2
100
AcDbEntity
  8
0
100
AcDbLine
 10
2514.489951821588
 20
-336.7708953197552
 30
0.0
 11
2514.933698552815
 21
-337.0508953197552
 31
0.0
  0
LWPOLYLINE
  5
7D1
330
2
100
AcDbEntity
  8
0
100
AcDbPolyline
 90
       20
 70
     0
 43
0.0
 10
2520.620987727537
 20
-350.5541779494968
 10
2519.762365778402
 20
-343.2363549322295
 10
2519.762365778402
 20
-343.2363549322295
 10
2519.732746248669
 20
-343.0735040641358
 10
2519.732746248669
 20
-343.0735040641358
 10
2519.688368359014
 20
-342.9156240542947
 10
2519.688368359014
 20
-342.9156240542947
 10
2519.624214986734
 20
-342.7626634977608
 10
2519.624214986734
 20
-342.7626634977608
 10
2519.545246709094
 20
-342.6195469883352
 10
2519.545246709094
 20
-342.6195469883352
 10
2519.44660575872
 20
-342.4863619144261
 10
2519.44660575872
 20
-342.4863619144261
 10
2519.337971686895
 20
-342.3629694826798
 10
2519.337971686895
 20
-342.3629694826798
 10
2519.21468206504
 20
-342.254438220746
 10
2519.21468206504
 20
-342.254438220746
 10
2519.076479868427
 20
-342.1606653187332
 10
2519.076479868427
 20
-342.1606653187332
 10
2518.933358218507
 20
-342.0866678993453
  0
LWPOLYLINE
  5
7D2
330
2
100
AcDbEntity
  8
0
100
AcDbPolyline
 90
        4
 70
     0
 43
0.0
 10
2518.82974640988
 20
-351.9802642351125
 10
2519.219601518347
 20
-351.9802642351125
 10
2519.219601518347
 20
-351.9802642351125
 10
2518.360974428718
 20
-351.9802642351125
  0
LWPOLYLINE
  5
7D3
330
2
100
AcDbEntity
  8
0
100
AcDbPolyline
 90
        2
 70
     0
 43
0.0
 10
2519.954831035735
 20
-350.5541779494968
 10
2519.979479707215
 20
-351.2795737007651
  0
LWPOLYLINE
  5
7D4
330
2
100
AcDbEntity
  8
0
100
AcDbPolyline
 90
        8
 70
     0
 43
0.0
 10
2519.954831035735
 20
-351.4917167713258
 10
2519.895597116762
 20
-351.5016070828856
 10
2519.895597116762
 20
-351.5016070828856
 10
2519.841328915549
 20
-351.5262557543662
 10
2519.841328915549
 20
-351.5262557543662
 10
2519.796899620949
 20
-351.5657604551648
 10
2519.796899620949
 20
-351.5657604551648
 10
2519.76728523171
 20
-351.6200286563791
  0
LWPOLYLINE
  5
7D5
330
2
100
AcDbEntity
  8
0
100
AcDbPolyline
 90
        2
 70
     0
 43
0.0
 10
2519.76728523171
 20
-351.6200286563791
 10
2519.219601518347
 20
-351.9802642351125
  0
LWPOLYLINE
  5
7D6
330
2
100
AcDbEntity
  8
0
100
AcDbPolyline
 90
        2
 70
     0
 43
0.0
 10
2519.979479707215
 20
-351.4769584114048
 10
2519.954831035735
 20
-351.4917167713258
  0
DIMENSION
  5
7D7
330
2
100
AcDbEntity
  8
0
100
AcDbDimension
  2
*D3
 10
2517.257698552815
 20
-312.572567424601
 30
0.0
 11
2513.337698552815
 21
-312.572567424601
 31
0.0
 70
   160
  1
140
 71
     5
 42
7.840000000000145
  3
ISO-25
100
AcDbAlignedDimension
 13
2509.417698552815
 23
-321.9601109954972
 33
0.0
 14
2517.257698552815
 24
-321.9601109954972
 34
0.0
100
AcDbRotatedDimension
1001
ACAD
1000
DSTYLE
1002
{
1070
    44
1040
1.0
1070
    42
1040
1.0
1070
   147
1040
1.0
1070
    41
1040
1.0
1070
   140
1040
2.0
1002
}
  0
CIRCLE
  5
7D8
330
2
100
AcDbEntity
  8
0
100
AcDbCircle
 10
2515.689698552815
 20
-324.3121109954972
 30
0.0
 40
0.168
  0
CIRCLE
  5
7D9
330
2
100
AcDbEntity
  8
0
100
AcDbCircle
 10
2515.689698552815
 20
-319.6081109954972
 30
0.0
 40
0.168
  0
ARC
  5
7DA
330
2
100
AcDbEntity
  8
0
100
AcDbCircle
 10
2513.295779139467
 20
-329.1028365170366
 30
0.0
 40
2.226528094064697
100
AcDbArc
 50
291.7739082859658
 51
358.6602363003497
  0
LINE
  5
7DB
330
2
100
AcDbEntity
  8
0
100
AcDbLine
 10
2513.887098225185
 20
-329.1548953197553
 30
0.0
 11
2517.257698552815
 21
-329.1548953197553
 31
0.0
  0
LINE
  5
7DC
330
2
100
AcDbEntity
  8
0
100
AcDbLine
 10
2513.981697858366
 20
-328.8179495660525
 30
0.0
 11
2517.257698552815
 21
-328.8188953197553
 31
0.0
  0
DIMENSION
  5
7DD
330
2
100
AcDbEntity
  8
0
100
AcDbDimension
  2
*D4
 10
2524.497932867971
 20
-331.1708953197552
 30
0.0
 11
2524.497932867971
 21
-335.4625619864215
 31
0.0
 70
   160
  1
42
 71
     5
 42
2.351999999999975
  3
ISO-25
100
AcDbAlignedDimension
 13
2517.257698552815
 23
-328.8188953197553
 33
0.0
 14
2514.121698552815
 24
-331.1708953197552
 34
0.0
 50
90.0
100
AcDbRotatedDimension
1001
ACAD
1000
DSTYLE
1002
{
1070
    42
1040
1.0
1070
   140
1040
2.0
1070
    41
1040
1.0
1002
}
  0
DIMENSION
  5
7DE
330
2
100
AcDbEntity
  8
0
100
AcDbDimension
  2
*D5
 10
2515.554598818282
 20
-319.7079712064373
 30
0.0
 11
2522.392146493833
 21
-314.653934974968
 31
0.0
 70
   163
  1
φ6
 71
     5
 42
0.3360000000002401
  3
ISO-25
100
AcDbDiametricDimension
 15
2515.824798287348
 25
-319.508250784557
 35
0.0
 40
0.0
1001
ACAD
1000
DSTYLE
1002
{
1070
   340
1005
CE
1070
   140
1040
2.0
1070
   147
1040
1.0
1070
    41
1040
1.0
1070
   288
1070
     1
1002
}
  0
CIRCLE
  5
7DF
330
2
100
AcDbEntity
  8
0
100
AcDbCircle
 10
2513.337698552815
 20
-321.9601109954972
 30
0.0
 40
3.919999999999999
  0
DIMENSION
  5
7E0
330
2
100
AcDbEntity
  8
0
100
AcDbDimension
  2
*D6
 10
2513.981697858366
 20
-327.0157562001555
 30
0.0
 11
2518.273364525033
 21
-325.3907562001555
 31
0.0
 70
    32
  1
23
 71
     5
 42
1.287998611102011
  3
ISO-25
100
AcDbAlignedDimension
 13
2512.693699247264
 23
-325.8268492714153
 33
0.0
 14
2513.981697858366
 24
-325.8268492714153
 34
0.0
100
AcDbRotatedDimension
1001
ACAD
1000
DSTYLE
1002
{
1070
    41
1040
1.0
1070
   140
1040
2.0
1002
}
  0
LINE
  5
7E1
330
2
100
AcDbEntity
  8
0
100
AcDbLine
 10
2513.981697858366
 20
-325.8268492714153
 30
0.0
 11
2513.981697858366
 21
-321.9601109954972
 31
0.0
  0
LINE
  5
7E2
330
2
100
AcDbEntity
  8
0
100
AcDbLine
 10
2512.693699247264
 20
-325.8268492714153
 30
0.0
 11
2512.693699247264
 21
-321.9601109954972
 31
0.0
  0
DIMENSION
  5
7E3
330
2
100
AcDbEntity
  8
0
100
AcDbDimension
  2
*D7
 10
2513.908581966321
 20
-321.4227581056893
 30
0.0
 11
2506.84714467177
 21
-328.0694457597003
 31
0.0
 70
   163
  1
φ28
 71
     5
 42
1.568000000000438
  3
ISO-25
100
AcDbDiametricDimension
 15
2512.766815139311
 25
-322.4974638853052
 35
0.0
 40
0.0
1001
ACAD
1000
DSTYLE
1002
{
1070
   340
1005
CE
1070
   140
1040
2.0
1070
   147
1040
1.0
1070
    41
1040
1.0
1070
   288
1070
     1
1002
}
  0
ARC
  5
7E4
330
2
100
AcDbEntity
  8
0
100
AcDbCircle
 10
2513.337698552815
 20
-321.9601109954972
 30
0.0
 40
2.184
100
AcDbArc
 50
287.1338653216591
 51
252.9281601024182
  0
ARC
  5
7E5
330
2
100
AcDbEntity
  8
0
100
AcDbCircle
 10
2513.337698552815
 20
-328.8188953197553
 30
0.0
 40
0.6440000000000001
100
AcDbArc
 50
180.0841424147623
 51
0.084142414762347
  0
LINE
  5
7E6
330
2
100
AcDbEntity
  8
0
100
AcDbLine
 10
2512.693699247264
 20
-328.8198410734581
 30
0.0
 11
2509.417697654518
 21
-328.8188957037224
 31
0.0
  0
LINE
  5
7E7
330
2
100
AcDbEntity
  8
0
100
AcDbLine
 10
2509.417698552815
 20
-329.1548953197553
 30
0.0
 11
2512.788298880445
 21
-329.1548953197553
 31
0.0
  0
LINE
  5
7E8
330
2
100
AcDbEntity
  8
0
100
AcDbLine
 10
2509.417698552815
 20
-328.8188953197553
 30
0.0
 11
2509.417698552815
 21
-329.1548953197553
 31
0.0
  0
LINE
  5
7E9
330
2
100
AcDbEntity
  8
0
100
AcDbLine
 10
2512.553698552815
 20
-331.1708953197552
 30
0.0
 11
2514.121698552815
 21
-331.1708953197552
 31
0.0
  0
LINE
  5
7EA
330
2
100
AcDbEntity
  8
0
100
AcDbLine
 10
2514.121698552815
 20
-331.1708953197552
 30
0.0
 11
2512.553698552815
 21
-331.1708953197552
 31
0.0
  0
ARC
  5
7EB
330
2
100
AcDbEntity
  8
0
100
AcDbCircle
 10
2513.380057260361
 20
-329.1029239950704
 30
0.0
 40
2.226965224976884
100
AcDbArc
 50
181.3372494041125
 51
248.2184133286155
  0
LINE
  5
7EC
330
2
100
AcDbEntity
  8
0
100
AcDbLine
 10
2514.121698552815
 20
-331.1708953197552
 30
0.0
 11
2514.121698552815
 21
-331.1772632926269
 31
0.0
  0
CIRCLE
  5
7ED
330
2
100
AcDbEntity
  8
0
100
AcDbCircle
 10
2510.985698552815
 20
-324.3121109954972
 30
0.0
 40
0.168
  0
DIMENSION
  5
7EE
330
2
100
AcDbEntity
  8
0
100
AcDbDimension
  2
*D8
 10
2515.689698552815
 20
-316.5954125040386
 30
0.0
 11
2513.337698552815
 21
-316.5954125040386
 31
0.0
 70
   160
  1
84
 71
     5
 42
4.704000000000178
  3
ISO-25
100
AcDbAlignedDimension
 13
2510.985698552815
 23
-319.6081109954972
 33
0.0
 14
2515.689698552815
 24
-319.6081109954972
 34
0.0
100
AcDbRotatedDimension
1001
ACAD
1000
DSTYLE
1002
{
1070
    44
1040
1.0
1070
    42
1040
1.0
1070
    41
1040
1.0
1070
   140
1040
2.0
1002
}
  0
CIRCLE
  5
7EF
330
2
100
AcDbEntity
  8
0
100
AcDbCircle
 10
2513.337698552815
 20
-321.9601109954972
 30
0.0
 40
0.784
  0
CIRCLE
  5
7F0
330
2
100
AcDbEntity
  8
0
100
AcDbCircle
 10
2513.337698552815
 20
-321.9601109954972
 30
0.0
 40
0.6440000000000001
  0
CIRCLE
  5
7F1
330
2
100
AcDbEntity
  8
0
100
AcDbCircle
 10
2510.985698552815
 20
-319.6081109954972
 30
0.0
 40
0.168
  0
LINE
  5
7F2
330
2
100
AcDbEntity
  8
0
100
AcDbLine
 10
2517.257698552815
 20
-329.1548953197553
 30
0.0
 11
2517.257698552815
 21
-328.8188953197553
 31
0.0
  0
ENDSEC
  0
SECTION
  2
OBJECTS
  0
DICTIONARY
  5
7
330
0
100
AcDbDictionary
281
     1
  3
ACAD_GROUP
350
C6
  3
ACAD_LAYOUT
350
B4
  3
ACAD_MLINESTYLE
350
C7
  3
ACAD_PLOTSETTINGS
350
C8
  3
ACAD_PLOTSTYLENAME
350
6
  0
DICTIONARY
  5
C6
102
{ACAD_REACTORS
330
7
102
}
330
7
100
AcDbDictionary
281
     1
  0
DICTIONARY
  5
B4
102
{ACAD_REACTORS
330
7
102
}
330
7
100
AcDbDictionary
281
     1
  3
Model
350
B3
  3
ﾚｲｱｳﾄ1
350
B8
  0
DICTIONARY
  5
C7
102
{ACAD_REACTORS
330
7
102
}
330
7
100
AcDbDictionary
281
     1
  3
Standard
350
C9
  0
DICTIONARY
  5
C8
102
{ACAD_REACTORS
330
7
102
}
330
7
100
AcDbDictionary
281
     1
  0
ACDBDICTIONARYWDFLT
  5
6
102
{ACAD_REACTORS
330
7
102
}
330
7
100
AcDbDictionary
281
     1
  3
Normal
350
5
100
AcDbDictionaryWithDefault
340
5
  0
LAYOUT
  5
B3
102
{ACAD_REACTORS
330
B4
102
}
330
B4
100
AcDbPlotSettings
  1

  2
いきなりPDF Professional 2
  4
A4
  6

 40
3.174999952316284
 41
3.174999952316284
 42
3.175003051757812
 43
3.17498779296875
 44
209.9733276367187
 45
297.0106506347656
 46
0.0
 47
0.0
 48
0.0
 49
0.0
140
0.0
141
0.0
142
1.0
143
1.0
 70
 11952
 72
     1
 73
     1
 74
     0
  7

 75
     0
147
1.0
148
-2458.149113136417
149
410.2723830640502
100
AcDbLayout
  1
Model
 70
     1
 71
     0
 10
0.0
 20
0.0
 11
12.0
 21
9.0
 12
0.0
 22
0.0
 32
0.0
 14
0.0
 24
0.0
 34
0.0
 15
0.0
 25
0.0
 35
0.0
146
0.0
 13
0.0
 23
0.0
 33
0.0
 16
1.0
 26
0.0
 36
0.0
 17
0.0
 27
1.0
 37
0.0
 76
     0
330
2
  0
LAYOUT
  5
B8
102
{ACAD_REACTORS
330
B4
102
}
330
B4
100
AcDbPlotSettings
  1

  2
いきなりPDF Professional 2
  4

  6

 40
0.0
 41
0.0
 42
0.0
 43
0.0
 44
0.0
 45
0.0
 46
0.0
 47
0.0
 48
0.0
 49
0.0
140
0.0
141
0.0
142
1.0
143
1.0
 70
   688
 72
     0
 73
     0
 74
     5
  7

 75
    16
147
1.0
148
0.0
149
0.0
100
AcDbLayout
  1
ﾚｲｱｳﾄ1
 70
     1
 71
     1
 10
0.0
 20
0.0
 11
420.0
 21
297.0
 12
0.0
 22
0.0
 32
0.0
 14
1.000000000000000E+20
 24
1.000000000000000E+20
 34
1.000000000000000E+20
 15
-1.000000000000000E+20
 25
-1.000000000000000E+20
 35
-1.000000000000000E+20
146
0.0
 13
0.0
 23
0.0
 33
0.0
 16
1.0
 26
0.0
 36
0.0
 17
0.0
 27
1.0
 37
0.0
 76
     0
330
B5
  0
MLINESTYLE
  5
C9
102
{ACAD_REACTORS
330
C7
102
}
330
C7
100
AcDbMlineStyle
  2
STANDARD
 70
     0
  3

 62
   256
 51
90.0
 52
90.0
 71
     2
 49
0.5
 62
   256
  6
BYLAYER
 49
-0.5
 62
   256
  6
BYLAYER
  0
ACDBPLACEHOLDER
  5
5
102
{ACAD_REACTORS
330
6
102
}
330
6
  0
ENDSEC
  0
EOF
